<?xml version="1.0" standalone="no"?>
<!DOCTYPE svg PUBLIC "-//W3C//DTD SVG 1.1//EN" "http://www.w3.org/Graphics/SVG/1.1/DTD/svg11.dtd" >
<svg xmlns="http://www.w3.org/2000/svg">
<metadata>
This is a custom SVG webfont generated by Font Squirrel.
</metadata>
<defs>
<font id="IcoMoonBase" horiz-adv-x="1433" >
<font-face units-per-em="2048" ascent="1536" descent="-512" />
<missing-glyph horiz-adv-x="500" />
<glyph unicode=" " d="M0 716.5q0 147.5 56.5 278.5t154.5 228.5t228 154t277.5 56.5t278.5 -56.5t228.5 -154t154 -228.5t56.5 -278.5t-56.5 -278.5t-154 -228t-228.5 -153.5t-278.5 -56.5t-277.5 56.5t-228 153.5t-154.5 228t-56.5 278.5zM150 717q0 -117 45 -220.5t121.5 -180t180 -121.5 t220.5 -45t220 45t180 121.5t122 180t45 220.5t-45 220t-122 180t-180 122t-220 45t-220.5 -45t-180 -122t-121.5 -180t-45 -220zM508 387v330v330l285 -164l284 -166l-284 -164z" />
<glyph unicode="!" d="M10.5 129q-26.5 45 12.5 111l602 1048q39 66 92 66t90 -66l606 -1048q37 -66 10.5 -111t-102.5 -45h-1208q-76 0 -102.5 45zM596 270.5q0 -53.5 33 -87t86 -33.5h2q53 0 86 33.5t33 86.5q-2 53 -34 88t-85 35t-87 -34.5t-34 -88zM631 969l22 -494h125l25 494h-172z" />
<glyph unicode="&#x22;" d="M0 817q0 86 46 161t126 130t187.5 88t230.5 33t229.5 -33t186 -88t126 -130t46.5 -161t-46.5 -160.5t-126 -130t-186 -87t-229.5 -31.5q-23 0 -43.5 1t-40.5 3q-53 -68 -122 -125.5t-124 -79.5q82 94 82 201q0 8 -1 18t-3 20q-74 25 -136.5 63t-107.5 86t-69.5 104.5 t-24.5 117.5zM842 387q86 27 156.5 70t123 97t83 118.5t32.5 136.5q90 -31 143.5 -91.5t53.5 -133.5q0 -76 -57.5 -137.5t-149.5 -92.5q-4 -16 -4 -22q0 -63 51 -125q-35 14 -77 49t-75 76q-12 0 -25.5 -1t-27.5 -1q-129 0 -227 57z" />
<glyph unicode="#" d="M0 739q0 84 48 177.5t140.5 172t226.5 130t306 51.5t305 -52.5t224 -134.5t137.5 -182t46.5 -196q0 -63 -30 -99.5t-75 -52.5t-98 -17t-103.5 5t-89.5 14t-53 10q-23 2 -50.5 -2t-51 -22.5t-36.5 -56.5t-5 -103.5t1 -112.5t-38 -73.5t-90.5 -29.5t-153.5 21 q-96 25 -195.5 66t-180.5 106.5t-133 158.5t-52 222zM154 629q0 -33 24.5 -55.5t59 -22.5t59.5 22.5t25 55.5t-25 55.5t-59.5 22.5t-59 -22.5t-24.5 -55.5zM197 960.5q0 -34.5 26.5 -59t61.5 -24.5q39 0 64.5 24.5t25.5 59t-25.5 59t-64.5 24.5q-35 0 -61.5 -24.5t-26.5 -59 zM514 1091.5q0 -38.5 28.5 -65.5t69.5 -27t70 27t29 65.5t-29 65.5t-70 27t-69.5 -27t-28.5 -65.5zM571 643q0 -41 40 -68.5t96 -27.5q57 0 96 27.5t39 68.5q0 39 -39 65.5t-96 26.5q-55 0 -95.5 -26.5t-40.5 -65.5zM877 1012q0 -41 31.5 -71t74.5 -30q45 0 76 30t31 71 t-31 69.5t-76 28.5q-43 0 -74.5 -28.5t-31.5 -69.5z" />
<glyph unicode="$" d="M0 1098v86h246v-2l67 -138h981l68 140l72 -43l-310 -621h-643l-286 578h-195zM354 963l66 -134h194v134h-260zM453 360q0 47 31.5 79t78.5 32t78 -31.5t31 -79.5q0 -45 -31 -77.5t-78 -32.5t-78.5 32.5t-31.5 77.5zM461 745l69 -141h84v141h-153zM698 604h220v141h-220 v-141zM698 829h220v134h-220v-134zM963 360q0 47 32.5 79t77.5 32q47 0 79 -31.5t32 -79.5q0 -45 -32 -77.5t-79 -32.5q-45 0 -77.5 32.5t-32.5 77.5zM1001 604h76l68 141h-144v-141zM1001 829h187l65 134h-252v-134z" />
<glyph unicode="%" d="M231 29v1341q0 29 29 29h57q27 0 27 -29v-14q0 -10 8 -17.5t19 -3.5l350 99q27 4 27 -21v-72q0 -10 8 -17t18 -3l402 113q27 4 26 -21v-514q0 -27 -26 -35l-408 -114q-10 -4 -18.5 3t-8.5 17v72q0 29 -26 20l-344 -96q-27 -8 -27 -35v-702q0 -29 -27 -29h-57 q-29 0 -29 29z" />
<glyph unicode="&#x26;" d="M303 985v6v10v19q0 86 33 161.5t88 131t131 88.5t162 33t161.5 -33t131 -88.5t88 -131t32.5 -161.5v-19v-10v-6q0 -2 -1 -5t-1 -5q-6 -63 -27.5 -139t-52 -156t-66.5 -162t-73 -158q-86 -178 -192 -360q-106 182 -193 360q-37 76 -73.5 158t-66.5 162t-51.5 155.5 t-27.5 139.5q0 2 -1 5t-1 5zM539 1028q0 -74 52 -126t126 -52t126 52t52 126t-52 126t-126 52t-126 -52t-52 -126z" />
<glyph unicode="'" d="M0 870q0 113 56.5 211.5t153.5 172t228 115.5t278.5 42t278.5 -42t228.5 -115.5t154 -172t56.5 -211t-56.5 -211t-154 -172t-228.5 -115.5t-278 -42h-12q-33 -49 -74 -97.5t-84 -90.5t-86 -73.5t-80 -45.5q47 59 72.5 125.5t25.5 138.5q0 16 -2 37.5t-6 37.5 q-102 29 -189 79.5t-149.5 116t-97.5 145t-35 167.5z" />
<glyph unicode="(" d="M0 59v445h209v-238h1018v238h207v-445h-1434zM403 924h211v450h207v-450h205l-311 -537z" />
<glyph unicode=")" d="M0 59v445h209v-238h1018v238h207v-445h-1434zM403 836l312 538l311 -538h-209v-449h-209v449h-205z" />
<glyph unicode="*" d="M0 604l113 113l-113 112l141 74l-71 144l157 26l-24 158l157 -25l27 158l143 -72l74 142l113 -113l112 113l74 -142l144 72l26 -158l158 25l-25 -158l158 -26l-72 -144l142 -74l-113 -112l113 -113l-142 -74l72 -143l-158 -27l25 -157l-158 24l-26 -157l-144 71l-74 -141 l-112 113l-113 -113l-74 141l-143 -71l-27 157l-157 -24l24 157l-157 27l71 143z" />
<glyph unicode="+" d="M0 633v168q0 23 16.5 40t38.5 17h520v520q0 23 17.5 39.5t40.5 16.5h168q23 0 40 -16.5t17 -39.5v-520h520q23 0 39.5 -17.5t16.5 -39.5v-168q0 -23 -16.5 -40.5t-39.5 -17.5h-520v-520q0 -23 -17.5 -39t-39.5 -16h-168q-23 0 -40.5 16.5t-17.5 38.5v520h-520 q-23 0 -39 17.5t-16 40.5z" />
<glyph unicode="," d="M0 88v1167h627l178 -180h629v-987h-1434z" />
<glyph unicode="-" d="M0 633v168q0 23 16.5 40t38.5 17h1323q23 0 39.5 -17.5t16.5 -39.5v-168q0 -23 -16.5 -40.5t-39.5 -17.5h-1323q-23 0 -39 17.5t-16 40.5z" />
<glyph unicode="." d="M88 0v1434h897l358 -359v-1075h-1255zM180 88h1075v987h-270v268h-805v-1255z" />
<glyph unicode="/" d="M180 45v897q0 18 12.5 31.5t30.5 13.5h226q0 92 21.5 173t57 141.5t85 95.5t104.5 35t104 -35t85 -95.5t57.5 -141.5t21.5 -173h225q18 0 31.5 -13t13.5 -32v-897q0 -18 -13 -30.5t-32 -12.5h-987q-18 0 -30.5 12.5t-12.5 30.5zM537 987h360q0 82 -20 152q-16 68 -48 116 q-25 43 -59 70q-25 18 -53 18q-27 0 -53 -18q-35 -27 -60 -70q-31 -49 -47 -116q-20 -70 -20 -152z" />
<glyph unicode="0" d="M0 207v1020h1434v-1020h-1434zM109 330h47l315 647l348 -467l172 152l299 -332h33v776h-1214v-776zM1001 854q0 47 31 78t78 31q43 0 75 -31t32 -78q0 -43 -32 -74.5t-75 -31.5q-47 0 -78 31.5t-31 74.5z" />
<glyph unicode="1" d="M0 223v797q0 29 20.5 50.5t51.5 21.5h327l11 71l8 47q4 29 28.5 50.5t53.5 21.5h434q29 0 53.5 -21.5t28.5 -50.5l8 -47l10 -71h328q31 0 51.5 -21.5t20.5 -50.5v-797q0 -29 -20.5 -50t-51.5 -21h-1290q-31 0 -51.5 21t-20.5 50zM305 680q0 -86 33 -161t88 -131t130 -89 t161 -33t160.5 33t130 89t88 131t32.5 161q0 84 -32.5 158.5t-88 131t-130 89.5t-160.5 33t-161 -33t-130 -89.5t-88 -131t-33 -158.5zM395 680q0 68 25.5 126t68.5 101t101.5 68.5t126 25.5t126 -25.5t102.5 -68.5t69.5 -101t25.5 -126t-25.5 -127t-69.5 -102t-102.5 -69 t-126 -26t-126 26t-101.5 69t-68.5 102t-25.5 127zM1188 891h139v84h-139v-84z" />
<glyph unicode="2" d="M0 178v1077h1434v-1077h-1434zM88 268h180v178h-180v-178zM88 627h180v178h-180v-178zM88 985h180v178h-180v-178zM358 268h717v895h-717v-895zM537 446v539l360 -268zM1163 268h180v178h-180v-178zM1163 627h180v178h-180v-178zM1163 985h180v178h-180v-178z" />
<glyph unicode="3" d="M2 184q-6 41 8.5 80t45 71t73.5 54.5t96 28.5q47 8 93.5 1t80.5 -26l37 953l998 79q-12 -299 -23 -536q-4 -102 -9 -200.5t-8 -178.5t-6.5 -132t-3.5 -61q-4 -72 -65.5 -130t-157.5 -72q-53 -6 -100 3t-85 30.5t-62.5 55.5t-30.5 74.5t8 79.5t45 71t74 53.5t96 29.5 q51 8 97 -1t83 -30l35 674l-778 -82q-8 -211 -17 -385q-4 -74 -7 -148.5t-6 -138t-5 -109.5t-2 -65q0 -4 -2 -6v-2q-6 -72 -68.5 -127t-154.5 -69q-53 -8 -100.5 1t-85.5 31.5t-62.5 55t-30.5 73.5z" />
<glyph unicode="4" d="M0 430v922h1434v-922h-1434zM94 524h1247v733h-1247v-733zM352 82l109 131l26 129h459l27 -129l108 -131h-729z" />
<glyph unicode="5" d="M0 522v389q0 41 15.5 78t43 64.5t63.5 43t77 15.5h641q41 0 76.5 -15.5t63.5 -43t43 -64.5t15 -78v-389q0 -41 -15 -77.5t-43 -64.5t-63.5 -43t-76.5 -15h-641q-41 0 -77 15t-63.5 43t-43 64.5t-15.5 77.5zM1108 584v133v133l326 262v-395v-395z" />
<glyph unicode="6" d="M0 0v1434h268v-91h178v91h539v-91h178v91h271v-1434h-1434zM88 88h1255v1075h-1255v-1075zM223 268v178h180v-178h-180zM223 539v178h180v-178h-180zM494 268v178h178v-178h-178zM494 539v178h178v-178h-178zM494 805v180h178v-180h-178zM762 268v178h178v-178h-178z M762 539v178h178v-178h-178zM762 805v180h178v-180h-178zM1030 539v178h180v-178h-180zM1030 805v180h180v-180h-180z" />
<glyph unicode="7" d="M0 0l86 356l934 936l272 -270l-936 -936zM248 322l76 -74l784 786l-74 74zM1075 1348l55 55q41 39 109 28.5t125 -67.5q55 -57 67.5 -123.5t-28.5 -107.5l-57 -56z" />
<glyph unicode="8" d="M0 893v10q0 25 3 52.5t17.5 58t46 63.5t87.5 64q121 70 262 89t301 23q49 0 117.5 -3t145.5 -14t154.5 -33.5t145.5 -61.5q55 -31 87 -64t46 -63.5t17.5 -58t3.5 -52.5v-10q0 -25 -27 -25h-338q-27 0 -27 25v31q0 31 -13 49t-31.5 29.5t-39 15.5t-34.5 8q-16 2 -42 4 t-55.5 4t-58.5 3t-51.5 1t-51 -1t-58 -3t-55.5 -4t-42 -4q-16 -4 -36.5 -8t-39 -15.5t-31 -30t-12.5 -48.5v-31q0 -25 -26 -25h-338q-27 0 -27 25zM207 315.5q4 59.5 25.5 131t49 140t56.5 123t51 81.5q31 37 75 56t90 26.5t89 7.5h74h74l90 -9l90 -24l73 -57 q23 -27 51.5 -81.5t56.5 -123t49.5 -140t26.5 -131t-11.5 -97.5t-63.5 -38h-436h-436q-47 0 -62.5 38t-11.5 97.5zM506 518q0 -43 16.5 -82t45 -67.5t67.5 -45t82 -16.5t82 16.5t67.5 45t45 67.5t16.5 82t-16.5 82t-45 67.5t-67.5 45t-82 16.5t-82 -16.5t-67.5 -45 t-45 -67.5t-16.5 -82z" />
<glyph unicode="9" d="M324 715v110h86v-110q0 -70 24.5 -131.5t65.5 -107.5t97 -72.5t119.5 -26.5t120 26.5t98.5 72.5t66.5 107.5t24.5 131.5v110h84v-110q0 -82 -26.5 -155t-73.5 -130t-111.5 -93t-138.5 -44v-207h180v-86h-444v86h178v207q-74 8 -138.5 44t-111.5 93t-73.5 130t-26.5 155z M496 715v467q0 51 17 97t47 81t70 54.5t87 19.5q45 0 86 -19.5t71.5 -54.5t48 -81t17.5 -97v-467q0 -53 -17.5 -98.5t-48 -80t-71.5 -54t-86 -19.5q-47 0 -87 19.5t-70 54t-47 80t-17 98.5z" />
<glyph unicode=":" d="M123 901l539 533v-349q188 4 318 -44t208 -134t105.5 -198.5t10 -234.5t-78 -245t-158.5 -229q39 72 68.5 154t37 162.5t-13 154.5t-79 129t-161 87t-257.5 28v-350z" />
<glyph unicode=";" d="M130 474q-17 122 10.5 234.5t105.5 198.5t208 134.5t318 43.5v349l539 -533l-539 -536v350q-156 4 -258 -28t-160.5 -87t-78 -129t-12.5 -154.5t36 -162.5t68 -154q-98 106 -159 229t-78 245z" />
<glyph unicode="&#x3c;" d="M176 894q-12 93 9.5 181t75.5 164t138 127q84 49 177.5 61.5t181.5 -9t164.5 -76t126.5 -138.5q47 -78 61 -163t-1 -166.5t-59 -155.5t-112 -129l322 -471q6 -10 3 -23.5t-14 -19.5l-121 -72q-10 -8 -23 -4t-18 16l-268 506q-80 -31 -163 -33t-160.5 24t-144 77 t-111.5 127q-52 84 -64 177zM325.5 916.5q8.5 -62.5 43 -120t86 -95t112 -52t123 -6.5t119.5 43q57 33 94 85t52.5 111.5t7 123t-43 121t-86 94t-111.5 51t-122.5 6.5t-120 -43t-94.5 -86t-52.5 -110.5t-7 -122zM426 918v90h168v190h90v-190h190v-90h-190v-191h-90v191h-168 z" />
<glyph unicode="=" d="M0 221v991q0 55 39 94.5t96 39.5h1163q57 0 96.5 -39t39.5 -95v-991q0 -55 -39 -94t-97 -39h-1163q-57 0 -96 39t-39 94zM88 231q0 -18 13.5 -31.5t29.5 -13.5h1172q18 0 30.5 13.5t12.5 31.5v983q0 18 -12.5 32t-30.5 14h-1172q-16 0 -29.5 -13.5t-13.5 -32.5v-983z M225 846v88q0 33 33 33h184q33 0 33 -33v-88q0 -33 -33 -33h-184q-33 0 -33 33zM301 307v484h98v-484h-98zM301 989v150h98v-150h-98zM592 514v88q0 33 33 33h186q12 0 21.5 -9.5t9.5 -23.5v-88q0 -16 -9.5 -24.5t-21.5 -8.5h-186q-33 0 -33 33zM668 307v152h98v-152h-98z M668 657v482h98v-482h-98zM958 733v88q0 33 33 33h185q33 0 32 -33v-88q0 -33 -32 -33h-185q-33 0 -33 33zM1034 307v371h99v-371h-99zM1034 877v262h99v-262h-99z" />
<glyph unicode="&#x3e;" d="M174 894q-12 93 10.5 181t76.5 164t138 127q84 49 177.5 61.5t181.5 -9t163.5 -76t127.5 -138.5q45 -78 59 -163t-1 -166.5t-58 -155.5t-113 -129l321 -471q8 -10 5.5 -23.5t-15.5 -19.5l-119 -72q-12 -8 -24 -4t-19 16l-266 506q-80 -31 -164 -33t-161.5 24t-144 77 t-111.5 127q-52 84 -64 177zM323.5 916.5q8.5 -62.5 43 -120t87 -95t112 -52t123 -6.5t120.5 43q57 33 94 85t51.5 111.5t6 123t-43 121t-86 94t-112 51t-122.5 6.5t-119.5 -43t-94.5 -86t-52.5 -110.5t-7 -122zM410 920v84h467v-84h-467z" />
<glyph unicode="?" d="M0 716.5q0 147.5 56.5 278.5t153.5 228.5t228 154t278.5 56.5t278.5 -56.5t228.5 -154t154 -228.5t56.5 -278.5t-56.5 -278.5t-154 -228t-228.5 -153.5t-278.5 -56.5t-278.5 56.5t-228 153.5t-153.5 228t-56.5 278.5zM393 963h178q27 172 152 172q29 0 55 -11 q23 -8 45 -26q14 -14 29 -43q10 -27 10 -54q0 -14 -4 -30q0 -16 -10 -33q-6 -12 -29 -37l-22 -22l-29 -27q-78 -63 -106 -123q-31 -61 -31 -211h170q0 111 14 141q4 14 29 39q20 25 57 52q14 14 28.5 27.5t28.5 27.5q23 25 43 59q18 31 29 68q12 37 12 76q0 57 -24.5 110 t-65.5 88q-37 35 -100 58q-31 10 -63.5 15t-69.5 5q-68 0 -123 -24q-57 -20 -100 -62q-23 -23 -39.5 -47.5t-30.5 -52.5q-12 -31 -20.5 -64.5t-12.5 -70.5zM590 278.5q0 -53.5 37 -90t90 -36.5t91 36.5t38 90t-38 91.5t-91 38t-90 -38t-37 -91.5z" />
<glyph unicode="@" d="M0 274l592 355l125 -113l125 113l592 -355h-1434zM0 332v827l522 -469zM43 1159h1348l-674 -502zM911 690l523 469v-827z" />
<glyph unicode="A" d="M0 655l1434 709l-904 -885zM647 70v297l148 -56zM647 440l787 924l-256 -1116z" />
<glyph unicode="B" d="M0 627l805 807h629v-625l-805 -809l-183 449zM1036 1167.5q0 -53.5 37 -90.5t90.5 -37t89 37t35.5 90.5t-35.5 90t-89 36.5t-90.5 -36.5t-37 -90z" />
<glyph unicode="C" d="M0 715l217 215l330 -330l670 670l217 -217l-887 -887z" />
<glyph unicode="D" d="M0 223v180q0 18 8 35t25 33q35 -35 101.5 -63.5t155.5 -49t197.5 -33t229.5 -12.5t230.5 12.5t198.5 33t154.5 49t100.5 63.5q16 -16 24.5 -32.5t8.5 -35.5v-180q0 -47 -56.5 -87t-154 -70.5t-228.5 -48t-278.5 -17.5t-278.5 17.5t-228 48t-153.5 70.5t-56.5 87zM0 627 v178q0 39 33 67q35 -35 101.5 -62.5t155.5 -49t197.5 -32.5t229.5 -11t230.5 11t198.5 32.5t154.5 49.5t100.5 62q33 -29 33 -67v-178q0 -47 -56.5 -87t-154 -71t-228.5 -48.5t-278.5 -17.5t-278.5 17.5t-228 48.5t-153.5 71t-56.5 87zM0 1030v180q0 45 56.5 86t153.5 72 t228 48.5t278.5 17.5t278.5 -17.5t228.5 -48.5t154 -72t56.5 -86v-180q0 -47 -56.5 -88t-154 -71.5t-228.5 -48t-278.5 -17.5t-278.5 17.5t-228 48t-153.5 71.5t-56.5 88z" />
<glyph unicode="E" d="M117 0v59q0 100 19.5 195.5t56 180.5t89 157t117.5 125q-66 51 -118 122.5t-88.5 156.5t-56 180.5t-19.5 197.5v60h1200v-60q0 -102 -19.5 -197.5t-56.5 -180.5t-89 -156.5t-118 -122.5q131 -106 207 -280.5t76 -377.5v-59h-1200zM238 117h958q-6 90 -28.5 174 t-60.5 154.5t-90 127t-114 93.5l-88 51l88 51q125 72 204 218.5t89 330.5h-958q12 -184 91 -330.5t203 -218.5l86 -51l-86 -51q-61 -37 -113 -93.5t-90 -127t-61.5 -154.5t-29.5 -174zM391 219q31 72 68 137q33 55 78 110.5t102 84.5v2h2q2 0 2 2q20 12 34.5 54t16.5 92 q0 8 1 17q0 41 -9 80q-10 46 -39 64q-41 23 -74.5 66t-56.5 84q-27 49 -49 102h502q-23 -53 -49 -102q-25 -41 -59 -84t-75 -66q-29 -18 -38 -64q-8 -35 -8 -74v-23q3 -50 16.5 -92t34.5 -54q0 -2 2 -2h4v-2q55 -29 100 -84t78 -111q37 -66 67 -137h-651z" />
<glyph unicode="F" d="M102 398q-3 24 -2 50q0 51 11 107q12 61 38.5 117.5t54 113t49 112.5t26.5 118q37 -66 46 -118t13 -122q57 70 111.5 150t94.5 165t59 172q12 53 12 105q0 33 -5 66q106 -55 191 -134q37 -33 71.5 -74.5t64.5 -91t49.5 -106.5t25.5 -123q12 27 18 60.5t6 68.5t-6 69 t-18 62q18 -14 57 -53t84 -98.5t87 -134t68 -159.5q28 -92 27 -187q0 -87 -36 -176q-38 -93 -121.5 -184t-229.5 -173q55 106 64 226q2 25 1 51q0 94 -24 184q-31 115 -96.5 215t-159.5 166q5 -22 5 -54q0 -11 -1 -23q-2 -48 -14 -104.5t-38 -114t-69 -104.5q7 34 8 63 q0 12 -1 23q-4 39 -15 68q-10 33 -28 57q-8 -35 -21 -71q-12 -33 -31.5 -75t-50.5 -87q-29 -41 -49 -83t-28 -92q-3 -21 -3 -43q0 -32 6 -68q10 -60 46 -134q-115 63 -188 126.5t-112 131t-47 140.5z" />
<glyph unicode="G" d="M27 481q49 29 80.5 72t45.5 94q9 35 9 71q0 17 -2 34q-6 53 -33 102q-41 63 -100 98l139 246q49 -29 103 -36q19 -3 38 -2q34 0 67 8q50 13 94 46t73 82q35 61 34 138h283q0 -57 21.5 -107.5t58.5 -87.5t87 -58.5t105 -21.5q37 0 72 10.5t66 26.5l139 -244 q-49 -29 -81 -71.5t-46 -94.5q-10 -36 -10 -72q0 -16 2 -32q6 -53 35 -102q18 -33 44.5 -57.5t55.5 -43.5l-141 -243q-49 29 -103 34q-17 2 -33 2q-36 0 -71 -9q-51 -13 -94 -46t-72 -82q-18 -33 -26.5 -66.5t-8.5 -68.5h-283q0 55 -21.5 105.5t-58 87t-87 58t-105.5 21.5 q-76 0 -137 -36zM428 716.5q0 -59.5 22.5 -112.5t61.5 -92t92 -61.5t112.5 -22.5t113 22.5t92.5 61.5t61.5 92t22.5 112.5t-22.5 113t-61.5 92.5t-92.5 61.5t-113 22.5t-112.5 -22.5t-92 -61.5t-61.5 -92.5t-22.5 -113z" />
<glyph unicode="H" d="M0 1004q0 82 30.5 153.5t85 124.5t126 85t153.5 32q98 0 182.5 -44t139.5 -120q55 76 140 120t181 44q82 0 154 -32t125 -85t85 -125t32 -153q0 -94 -29 -171t-77 -143.5t-110.5 -126t-130.5 -119.5q-88 -78 -175 -162.5t-160 -197.5l-33 -49l-35 49q-78 111 -166 194.5 t-170 155.5q-70 61 -133 120.5t-110.5 126.5t-76 146t-28.5 177zM82 1004q0 -86 24.5 -154t67.5 -127t101.5 -114.5t125.5 -112.5q78 -66 159 -144t155 -176q76 102 158.5 181t160.5 149q66 59 124.5 113.5t101.5 113t67.5 125t24.5 146.5q0 66 -24.5 123t-67.5 99 t-100.5 66.5t-121.5 24.5q-92 0 -168.5 -48t-115.5 -132l-37 -78l-37 78q-39 84 -116 132t-169 48q-66 0 -122 -24.5t-99 -66.5t-67.5 -99t-24.5 -123z" />
<glyph unicode="I" d="M0 475l717 717l252 -254v104h180v-284l285 -283h-174v-475h-453v293h-180v-293h-453v475h-174z" />
<glyph unicode="J" d="M0 716.5q0 147.5 56.5 278.5t153.5 228.5t228 154t278.5 56.5t278.5 -56.5t228.5 -154t154 -228.5t56.5 -278.5t-56.5 -278.5t-154 -228t-228.5 -153.5t-278.5 -56.5t-278.5 56.5t-228 153.5t-153.5 228t-56.5 278.5zM332 997q0 -41 30.5 -70.5t71.5 -29.5t71 29.5 t30 70.5q0 43 -30 73t-71 30t-71.5 -30t-30.5 -73zM446 358h539v88h-539v-88zM899 997q0 -41 29.5 -70.5t70.5 -29.5t72 29.5t31 70.5q0 43 -31 73t-72 30t-70.5 -30t-29.5 -73z" />
<glyph unicode="K" d="M0 716.5q0 147.5 56.5 278.5t153.5 228.5t228 154t278.5 56.5t278.5 -56.5t228.5 -154t154 -228.5t56.5 -278.5t-56.5 -278.5t-154 -228t-228.5 -153.5t-278.5 -56.5t-278.5 56.5t-228 153.5t-153.5 228t-56.5 278.5zM285 555l4 -8q66 -117 181.5 -182.5t246.5 -65.5 t246.5 65.5t181.5 182.5l4 8l-88 51l-6 -8q-53 -92 -143.5 -144.5t-195 -52.5t-194.5 52.5t-143 144.5l-6 8zM332 997q0 -41 30.5 -70.5t71.5 -29.5t71 29.5t30 70.5q0 43 -30 73t-71 30t-71.5 -30t-30.5 -73zM899 997q0 -41 29.5 -70.5t70.5 -29.5t72 29.5t31 70.5 q0 43 -31 73t-72 30t-70.5 -30t-29.5 -73z" />
<glyph unicode="L" d="M0 716.5q0 147.5 56.5 278.5t153.5 228.5t228 154t278.5 56.5t278.5 -56.5t228.5 -154t154 -228.5t56.5 -278.5t-56.5 -278.5t-154 -228t-228.5 -153.5t-278.5 -56.5t-278.5 56.5t-228 153.5t-153.5 228t-56.5 278.5zM285 387l88 -51l6 10q53 92 143 143.5t194.5 51.5 t194.5 -51.5t144 -143.5l6 -10l88 51l-4 8q-66 117 -181.5 182.5t-246.5 65.5t-247 -65.5t-181 -182.5zM332 997q0 -41 30.5 -70.5t71.5 -29.5t71 29.5t30 70.5q0 43 -30 73t-71 30t-71.5 -30t-30.5 -73zM899 997q0 -41 29.5 -70.5t70.5 -29.5t72 29.5t31 70.5q0 43 -31 73 t-72 30t-70.5 -30t-29.5 -73z" />
<glyph unicode="M" d="M20 836q0 31 46.5 59.5t125 50t185 33.5t227.5 12t226.5 -12t184.5 -33.5t125 -50.5t46 -59v-21q98 -20 162.5 -86.5t64.5 -153.5q0 -51 -23.5 -96t-63.5 -78.5t-93 -53t-115 -19.5q-8 0 -14 1t-14 1q-70 -152 -191 -241t-295 -89q-150 0 -259 65.5t-182 179t-108 266.5 t-35 325zM76 836q10 -10 43 -27.5t108 -36.5q78 -18 175.5 -27.5t202 -9.5t199.5 9.5t173 27.5q76 18 109.5 35.5t43.5 28.5q-10 10 -43.5 27.5t-109.5 35.5q-78 16 -173 26.5t-199.5 10.5t-202 -10.5t-175.5 -26.5q-76 -18 -108.5 -35.5t-42.5 -27.5zM513 1222 q5 24 25.5 44t59.5 32q-29 -29 -33 -55t5.5 -51t26.5 -48.5t32.5 -47t24 -47t-0.5 -48.5q-8 31 -21.5 50.5t-29.5 33t-31.5 24.5t-27.5 24q-18 18 -27 42q-5 14 -5 29q0 9 2 18zM601 1339q0 22 11 41q12 20 41 35t76 19q-39 -27 -49 -55.5t-5 -57.5t19.5 -58.5t25.5 -60.5 t13 -61.5t-18 -59.5q0 41 -11.5 71t-28 53.5t-33.5 43t-28 39.5q-13 25 -13 51zM1116 391q104 8 152.5 60.5t48.5 113.5q0 47 -36 88t-99 58q-6 -88 -23.5 -168t-42.5 -152z" />
<glyph unicode="N" d="M0 629q0 147 56.5 278t153.5 228.5t228 154t278.5 56.5t278.5 -56.5t228.5 -154t154 -228.5t56.5 -278q0 -152 -60.5 -289t-171.5 -240l-14 -12h-942l-15 12q-111 102 -171 239.5t-60 289.5zM94 602q0 -74 23 -151l100 32q4 -8 6 -15t4 -15l-100 -33q49 -135 154 -240 h872q104 104 154 240l-101 33q2 8 4 15t7 15l100 -32q20 74 24 151h-208q0 6 1 12.5t1 14.5q0 6 -1 12t-1 12h208q-4 82 -24 152l-100 -33q-4 8 -7 16l-4 17l101 33q-29 78 -70 135l-170 -121q-12 20 -29 41l168 123q-49 61 -110 108l-62 -86q-6 4 -12 9.5t-14 11.5l63 84 q-61 43 -137 71l-64 -198l-24 8l-27 8l66 199q-37 10 -74 15t-78 7v-106h-16h-17v106q-41 -2 -77.5 -7t-73.5 -15l65 -199q-14 -4 -26 -8l-25 -8l-63 198q-76 -29 -138 -71l64 -84q-8 -6 -14 -11.5t-13 -9.5l-61 86q-61 -47 -111 -108l168 -123q-16 -20 -28 -41l-170 121 q-41 -57 -70 -135l100 -33l-4 -17l-6 -16l-100 33q-23 -74 -23 -152h207q0 -6 -1 -12t-1 -12q0 -8 1 -14.5t1 -12.5h-207zM389 322l574 688l41 -31l-478 -758z" />
<glyph unicode="O" d="M0 279l600 602q-15 55 -15 111q0 52 13 105q27 110 111 193q61 61 139 92t158.5 31t159.5 -31.5t141 -93.5q63 -63 95 -142t32 -160t-30 -159.5t-91 -140.5q-86 -84 -195 -108q-50 -11 -100 -12l-117 16l-119 -123h-192v-146h-141v-145h-146v-148h-252q-27 2 -38 13.5 t-11 40.5zM1026 1123q0 -46 33 -81q35 -35 81 -34.5t81 32.5q33 35 32.5 81t-34.5 79q-35 35 -81 35t-79 -33t-33 -79z" />
<glyph unicode="P" d="M0 539v446q0 37 26.5 63.5t61.5 26.5h1255q37 0 64 -26.5t27 -63.5v-446q0 -37 -27 -65t-64 -28h-268v-358h-717v358h-270q-35 0 -61.5 28t-26.5 65zM358 1163v180h717v-180h-717zM446 178h539v449h-539v-449zM1235 940q0 -27 18.5 -45t44.5 -18q29 0 46.5 18t17.5 45 q0 29 -17.5 46.5t-46.5 17.5q-27 0 -45 -17.5t-18 -46.5z" />
<glyph unicode="Q" d="M113 604q0 -125 48 -235.5t130 -192.5t191.5 -129t234.5 -47t234.5 47t191.5 129t130 192.5t48 235.5q0 94 -27.5 181t-79 160t-121 129t-153.5 89v-164q104 -59 167.5 -163.5t63.5 -231.5q0 -94 -35.5 -177t-97 -144.5t-144.5 -97t-177 -35.5t-177 35.5t-144.5 97 t-97.5 144.5t-36 177q0 127 63.5 231.5t168.5 163.5v164q-84 -33 -154 -89t-121 -129t-78.5 -160t-27.5 -181zM643 741v693h148v-693h-148z" />
<glyph unicode="R" d="M80 324v671l573 -323v-672zM156 1110l565 324l565 -324l-565 -324zM797 0v672l555 323v-671z" />
<glyph unicode="S" d="M20 498q0 88 25 129t61 50q14 3 29 3q25 0 52 -9q44 -15 83 -38t64.5 -24t40 11.5t19.5 33t5 42.5v267q0 39 27 65.5t66 26.5h217q23 0 43 5t31.5 19.5t10.5 40t-23.5 64.5t-37.5 83q-9 28 -9 53q0 14 3 28q8 37 49 61.5t129 24.5q90 0 131 -25t50 -61q3 -14 4 -29 q0 -25 -10 -52q-15 -44 -36 -83q-23 -39 -24.5 -64.5t9.5 -40t32.5 -19.5t44.5 -5h215q39 0 65.5 -27t26.5 -65v-871q0 -39 -26.5 -65.5t-65.5 -26.5h-215q-23 0 -44.5 5t-32.5 19.5t-9 40t24 64.5q20 39 36 83q10 28 10 53q0 15 -4 29q-9 38 -50 62.5t-131 24.5 q-88 0 -129 -24.5t-49 -62.5q-3 -14 -3 -28q0 -26 9 -54q14 -44 37 -83t24 -64.5t-10.5 -40t-33 -19.5t-43.5 -5h-215q-39 0 -66 26.5t-27 65.5v207q0 23 -5 44.5t-19.5 32.5t-40 9t-64.5 -24.5t-83 -36.5q-27 -9 -51 -9q-16 0 -30 3q-37 9 -61.5 49.5t-24.5 130.5z" />
<glyph unicode="T" d="M59 1094l43 180h392v72q0 35 25.5 61.5t62.5 26.5h270q37 0 62.5 -27t25.5 -61v-72h391l43 -180h-106l-123 -1094h-856l-123 1094h-107zM338 932l76 -717h106l-76 717h-106zM563 1274h307v72q0 16 -18 16h-270q-18 0 -19 -16v-72zM657 215h119v717h-119v-717zM913 215 h107l76 717h-107z" />
<glyph unicode="U" d="M0 446q10 63 80 110.5t172 57.5v11q-33 20 -52.5 62t-19.5 95q0 72 36 123t89 51t90 -51t37 -123q0 -53 -20.5 -95t-53.5 -62v-11q29 -4 54.5 -10t48.5 -14q-121 -53 -172 -144h-289zM303 326q6 43 35 88t74 84t104 66.5t127 33.5q2 6 2 16q-45 29 -71.5 86.5 t-26.5 128.5q0 49 13 91.5t35.5 74t54.5 50t67 18.5t65.5 -18.5t54 -50t37 -73.5t13.5 -92q0 -72 -26.5 -129t-72.5 -86v-16q70 -6 129.5 -33.5t104.5 -66.5t73.5 -84t34.5 -88h-827zM971 590q23 8 49.5 14t54.5 10v11q-33 20 -53.5 62t-20.5 95q0 72 37 123t90 51 q51 0 89 -51t38 -123q0 -53 -20.5 -95t-52.5 -62v-11q102 -10 171.5 -57t80.5 -111h-289q-27 43 -71 80t-103 64z" />
<glyph unicode="V" d="M178 614l828 820l-226 -615h475l-827 -819l225 614h-475z" />
<glyph unicode="W" d="M150 1229q74 6 143 20.5t137 40t138.5 61t148.5 83.5q78 -47 148.5 -83t138 -61.5t137 -40t143.5 -20.5q5 -78 5 -150q0 -129 -16 -238q-26 -171 -77 -301t-117.5 -223.5t-135.5 -157t-129 -101.5t-97 -58q-37 20 -97.5 58t-128 101.5t-135 157t-118 223.5t-76.5 300 q-17 110 -18 241q1 71 6 148zM246 1139q-1 -26 -1 -53q0 -431 193 -711q72 -102 149 -165t130 -93q51 31 129 93t149 165q193 280 194 711q0 26 -1 53q-117 16 -228.5 58t-242.5 120q-131 -78 -242.5 -120t-228.5 -58zM313 1081q98 18 195.5 57.5t208.5 100.5 q111 -61 208 -100t195 -58q0 -408 -180 -667q-94 -133 -223 -219q-131 88 -221 219q-183 259 -183 667z" />
<glyph unicode="X" d="M0 420v594l420 420h594l420 -420v-594l-420 -420h-594zM299 461l160 -162l258 258l258 -258l160 162l-256 256l256 258l-160 162l-258 -258l-258 258l-160 -162l258 -258z" />
<glyph unicode="Y" d="M0 0v627h627v-627h-627zM0 805v629h627v-629h-627zM805 0v627h629v-627h-629zM805 805v629h629v-629h-629z" />
<glyph unicode="Z" d="M9 924q-8 41 -8 81q0 65 22 130l309 -295l262 264l-295 307q66 22 132 22q39 0 79 -8q106 -20 186 -98q45 -47 72 -103.5t34 -116.5q3 -23 3 -47q0 -37 -7 -75q-11 -61 -42 -119l628 -567q25 -23 37.5 -51.5t12.5 -58t-11.5 -58.5t-33.5 -53l-33 -33q-25 -23 -53.5 -34 t-58.5 -11t-58.5 12.5t-50.5 36.5l-566 629q-94 -48 -194 -48q-24 0 -48 3q-126 14 -218 106q-78 79 -100 185z" />
<glyph unicode="[" d="M0 696.5q0 55.5 21.5 104.5t58.5 86t86 58.5t104 21.5h25l24 -4q-2 10 -2 28q0 78 54.5 132.5t132.5 54.5q47 0 85 -19.5t64 -54.5q47 59 115 93t147 34q68 0 127.5 -25.5t104.5 -69.5t71.5 -103.5t28.5 -127.5q82 -18 134.5 -83.5t52.5 -151.5q0 -51 -19.5 -95.5 t-52.5 -77t-77 -52t-95 -19.5h-318v-223h-311v223h-291q-55 0 -104 21.5t-86 58.5t-58.5 86t-21.5 104.5zM446 618h177v-354h188v354h176l-270 267z" />
<glyph unicode="\" d="M0 585.5q0 55.5 21.5 104.5t58.5 86t86 58.5t104 21.5q14 0 25.5 -1t23.5 -3q-2 8 -2 27q0 39 14.5 72.5t40 59t59.5 40t73 14.5q47 0 85 -19.5t64 -52.5q47 57 115 92t147 35q68 0 127.5 -25.5t104.5 -69.5t71.5 -102.5t28.5 -125.5q82 -23 134.5 -88.5t52.5 -151.5 q0 -49 -19.5 -94t-52.5 -78t-77 -52.5t-95 -19.5h-920q-55 0 -104 21.5t-86 58.5t-58.5 87t-21.5 105.5z" />
<glyph unicode="]" d="M0 702q0 57 21.5 106.5t58.5 86.5t86 58.5t104 21.5q25 0 49 -6q-2 10 -2 28q0 78 54.5 132.5t132.5 54.5q47 0 85 -19.5t64 -52.5q47 57 115 91t147 34q68 0 127.5 -25.5t104.5 -69.5t71.5 -102.5t28.5 -126.5q82 -20 134.5 -85.5t52.5 -151.5q0 -51 -19.5 -95 t-52.5 -77t-77 -52.5t-95 -19.5h-234l-239 -235l-240 235h-207q-55 0 -104 21.5t-86 58.5t-58.5 86t-21.5 104zM446 549l271 -266l270 266h-176v354h-188v-354h-177z" />
<glyph unicode="^" d="M0 717l360 207v-148h297v297h-147l207 361l209 -361h-150v-297h297v148l361 -207l-361 -209v149h-297v-297h150l-209 -360l-207 360h147v297h-297v-149z" />
<glyph unicode="_" d="M0 344.5q0 65.5 24.5 128t73.5 111.5l215 213q-2 -90 33 -185l-137 -137q-27 -27 -40 -61.5t-13 -69.5t13 -68.5t40 -60.5l6 -6q27 -27 60.5 -40t68.5 -13t70 13t61 40l305 305q27 27 39 60.5t12 69.5t-12 70t-39 60l-6 6q-10 8 -18 15.5t-19 11.5l111 113 q10 -8 18 -14.5t17 -16.5l6 -6q49 -49 73.5 -111.5t24.5 -127t-24.5 -128t-73.5 -113.5l-305 -305q-49 -49 -111.5 -73.5t-127 -24.5t-128 24.5t-113.5 73.5l-6 6q-49 49 -73.5 112t-24.5 128.5zM446 789.5q0 64.5 25 128t74 112.5l305 305q49 49 111.5 74t128 25t128 -25 t111.5 -74l6 -6q49 -49 74 -111.5t25 -127t-25 -128t-74 -112.5l-215 -213q2 90 -33 184l138 137q27 27 40 62t13 69.5t-13.5 68.5t-39.5 61l-6 6q-27 27 -61 40t-68.5 13t-69.5 -13.5t-62 -39.5l-305 -305q-27 -27 -40 -61t-13 -69.5t13.5 -69.5t39.5 -61l6 -6 q10 -8 18.5 -15t18.5 -11l-110 -113q-10 8 -18.5 14.5t-16.5 16.5l-6 6q-49 49 -74 111.5t-25 127z" />
<glyph unicode="`" d="M0 717q0 29 19.5 47t46.5 18h114q29 0 47.5 -18.5t18.5 -46.5q0 -27 -18.5 -46.5t-47.5 -19.5h-114q-27 0 -46.5 19.5t-19.5 46.5zM190 257q0 28 19 46l82 82q20 18 47 18t47 -18q18 -20 18 -47t-18 -47l-82 -82q-18 -18 -47 -19q-27 0 -47 19q-19 20 -19 48zM190 1176.5 q0 27.5 19 48.5q20 18 48 18t46 -18l82 -82q18 -20 18 -47t-18 -47q-23 -18 -47 -19q-29 0 -47 19l-82 81q-19 19 -19 46.5zM313 717q0 82 32 155.5t87 129t128 87t157 31.5t157.5 -31.5t128 -87t86 -129t31.5 -155.5q0 -84 -31.5 -158t-86 -128t-128 -86t-157.5 -32 t-157 32t-128 86t-87 128t-32 158zM428 716.5q0 -59.5 22.5 -112.5t61.5 -92t92 -61.5t112.5 -22.5t113 22.5t92.5 61.5t61.5 92t22.5 112.5t-22.5 113t-61.5 92.5t-92.5 61.5t-113 22.5t-112.5 -22.5t-92 -61.5t-61.5 -92.5t-22.5 -113zM651 66v114q0 29 19.5 47.5 t46.5 18.5q29 0 47 -18.5t18 -47.5v-114q0 -27 -18.5 -46.5t-46.5 -19.5q-27 0 -46.5 19.5t-19.5 46.5zM651 1253v115q0 27 19.5 46.5t46.5 19.5q29 0 47 -19.5t18 -46.5v-115q0 -29 -18.5 -47t-46.5 -18q-27 0 -46.5 18t-19.5 47zM1030 338q0 27 19 47q20 18 46.5 18 t47.5 -18l82 -82q18 -18 18 -46t-18 -48q-23 -18 -47 -19q-29 0 -48 19l-81 82q-19 20 -19 47zM1030 1095.5q0 26.5 19 47.5l81 82q18 18 46 18t49 -18q18 -20 18 -48t-18 -47l-82 -81q-18 -18 -47 -19q-27 0 -47 19q-19 20 -19 46.5zM1188 717q0 29 18.5 47t46.5 18h115 q27 0 46.5 -18.5t19.5 -46.5q0 -27 -19.5 -46.5t-46.5 -19.5h-115q-29 0 -47 19.5t-18 46.5z" />
<glyph unicode="a" d="M16 678q-15 18 -15 37t15 39q10 14 23 26l24 25q68 66 144 124t160 101q53 29 110.5 50.5t116.5 31.5q33 4 62.5 6t60.5 2t61.5 -2t61.5 -6q59 -10 116.5 -31.5t110.5 -50.5q84 -43 161 -101.5t142 -123.5q14 -12 25.5 -24.5t23.5 -26.5q14 -19 14.5 -38.5t-14.5 -37.5 q-35 -41 -74.5 -77t-80.5 -69q-90 -72 -191.5 -127t-214.5 -79q-66 -14 -141 -15q-72 0 -142 15q-113 25 -214 80t-191 126q-41 33 -80 69t-74 77zM442 716.5q0 -57.5 21.5 -107.5t58.5 -88t87 -59.5t107.5 -21.5t107.5 21.5t87 59.5t58.5 88t21.5 107.5t-21.5 107.5 t-58.5 87t-87 58.5t-107.5 21.5t-107.5 -21.5t-87 -58.5t-58.5 -87t-21.5 -107.5zM610 717q0 45 31 75.5t76 30.5t75.5 -30.5t30.5 -75.5t-30.5 -76t-75.5 -31t-76 31t-31 76z" />
<glyph unicode="b" d="M268 0v1434h899v-1434l-450 451z" />
<glyph unicode="c" d="M0 946q51 -53 111 -115q51 -53 114.5 -118.5t130.5 -130.5q117 139 259.5 259t289 215t283.5 164.5t246 106.5q-297 -231 -504 -451.5t-338 -390.5q-154 -201 -252 -379z" />
<glyph unicode="d" d="M0 877l539 12l178 510l178 -510l539 -12l-430 -324l155 -518l-442 309l-443 -309l156 518zM250 797l280 -213l-102 -338l289 203l289 -203l-103 338l281 213l-350 8l-117 332l-117 -332z" />
<glyph unicode="e" d="M0 877l539 12l178 510l178 -510l539 -12l-430 -324l155 -518l-442 307l-443 -307l156 518zM717 449l289 -201l-103 336l281 213l-350 8l-117 332v-688z" />
<glyph unicode="f" d="M0 877l541 12l176 510l178 -510l539 -12l-430 -326l155 -516l-442 307l-443 -307l156 516z" />
<glyph unicode="g" d="M0 717q0 49 6 96l111 10q16 84 53 160l-86 74q25 43 53.5 82t61.5 73l94 -57q57 55 139 100l-26 109q43 20 89 34.5t95 22.5l43 -102q20 4 40.5 6t43 2t43 -2t41.5 -6l43 102q49 -8 95 -22.5t89 -34.5l-27 -109q78 -43 138 -100l96 57q33 -35 61.5 -73.5t51.5 -81.5 l-84 -74q37 -76 53 -160l110 -10q6 -47 7 -96q0 -51 -7 -96l-110 -11q-16 -84 -53 -159l84 -74q-23 -43 -51.5 -82t-61.5 -74l-96 58q-59 -57 -138 -101l27 -106q-88 -45 -184 -60l-43 103q-41 -6 -84 -6q-45 0 -84 6l-43 -103q-96 14 -184 60l26 106q-82 45 -139 101 l-94 -58q-33 35 -61.5 74t-53.5 82l86 74q-37 76 -53 159l-111 11q-6 45 -6 96zM510 717q0 -43 16.5 -81t44 -66.5t65.5 -45t81 -16.5t81 16.5t66.5 45t45 66.5t16.5 81t-16.5 81t-45 65.5t-66.5 44t-81 16.5t-81 -16.5t-65.5 -44t-44 -65.5t-16.5 -81z" />
<glyph unicode="h" d="M0 1006q0 78 29.5 146.5t80 118.5t119 79.5t146.5 29.5q117 0 207 -59t135 -158q45 98 135 157.5t205 59.5q78 0 146.5 -29.5t119.5 -79.5t81 -119t30 -146q0 -102 -34 -184.5t-91.5 -153t-131 -137t-153.5 -138t-160 -153.5t-147 -187q-74 104 -155 186.5t-160.5 153 t-152.5 135t-128 135t-88 154t-33 189.5z" />
<glyph unicode="i" d="M0 716.5q0 147.5 56.5 278.5t153.5 228.5t228 154t278.5 56.5t278.5 -56.5t228.5 -154t154 -228.5t56.5 -278.5t-56.5 -278.5t-154 -227t-228.5 -152.5t-278.5 -56.5t-278.5 56.5t-228 152.5t-153.5 227t-56.5 278.5zM477 786q10 0 23.5 -2t26 -6t22.5 -7t16 -7 q10 -4 16.5 -11.5t12.5 -15.5q12 -18 12 -41v-329q0 -29 -10 -39q-10 -16 -31 -23q-8 -2 -15 -4t-17.5 -2t-18.5 -1t-18 -3v-88h460v88q-10 2 -19 3t-17 5q-10 2 -17.5 4t-15.5 6q-20 6 -31 23q-12 14 -12 39v467l-367 -8v-48zM561 1094q0 -55 43 -95q41 -39 103 -38 q59 0 100 38.5t41 94t-41 94.5t-100 39q-61 0 -103 -39q-43 -41 -43 -94z" />
<glyph unicode="j" d="M88 0v446h180v-446h-180zM90 627l539 536l178 -178l358 358l-90 91h268v-271l-88 92l-448 -450l-178 180l-449 -446zM446 0v627h181v-627h-181zM805 0v717h180v-717h-180zM1163 0v985h180v-985h-180z" />
<glyph unicode="k" d="M0 627q0 129 49 243.5t134 200.5t200 135t244 49v-628h628q0 -129 -49 -244t-135 -200t-200.5 -134t-243.5 -49t-244 49t-200 134t-134 200t-49 244zM805 805v629q131 0 245.5 -49.5t199.5 -134.5t134.5 -199.5t49.5 -245.5h-629z" />
<glyph unicode="l" d="M88 88v629q0 37 27.5 62.5t64.5 25.5h88v270q0 74 35 139.5t96.5 114.5t143.5 77t174 28t174 -28t142.5 -77t95 -114.5t34.5 -139.5v-270h92q35 0 61.5 -25.5t26.5 -62.5v-629q0 -35 -26.5 -61.5t-61.5 -26.5h-1075q-37 0 -64.5 26.5t-27.5 61.5zM446 805h539v270 q0 41 -22.5 70t-40.5 43q-39 33 -88 47q-53 20 -117 20t-117 -20q-49 -14 -88 -47q-18 -14 -42 -43t-24 -70v-270z" />
<glyph unicode="m" d="M0 716.5q0 147.5 56.5 278.5t153.5 228.5t228 154t278.5 56.5t278.5 -56.5t228.5 -154t154 -228.5t56.5 -278.5t-56.5 -278.5t-154 -228t-228.5 -153.5t-278.5 -56.5t-278.5 56.5t-228 153.5t-153.5 228t-56.5 278.5zM311 592h809v250h-809v-250z" />
<glyph unicode="n" d="M0 716.5q0 147.5 56.5 278.5t153.5 228.5t228 154t278.5 56.5t277.5 -56.5t227.5 -154t154 -228.5t56.5 -278.5t-56.5 -278.5t-154 -228t-227.5 -153.5t-277.5 -56.5t-278.5 56.5t-228 153.5t-153.5 228t-56.5 278.5zM31 717q0 -72 14 -137.5t39 -124.5l317 131 q-27 66 -26 131q0 35 7 66.5t19 62.5l-317 133q-25 -59 -39 -125.5t-14 -136.5zM408 716.5q0 -63.5 24.5 -119.5t66.5 -98t98 -66.5t119.5 -24.5t120 24.5t98.5 66.5t66.5 98t24.5 119.5t-24.5 120t-66.5 98.5t-98.5 66.5t-120 24.5t-119.5 -24.5t-98 -66.5t-66.5 -98.5 t-24.5 -120zM453 84q125 -53 264 -53q137 0 262 53l-133 317q-31 -12 -62.5 -19t-66.5 -7q-66 0 -131 26zM453 1350l133 -320q59 27 131 27q70 0 129 -27l133 320q-121 51 -262 51q-143 0 -264 -51zM1030 586l320 -131q51 125 51 262t-51 262l-320 -133q27 -59 27 -129 q0 -72 -27 -131z" />
<glyph unicode="o" d="M0 716.5q0 147.5 56.5 278.5t153.5 228.5t228 154t278.5 56.5t278.5 -56.5t228.5 -154t154 -228.5t56.5 -278.5t-56.5 -278.5t-154 -228t-228.5 -153.5t-278.5 -56.5t-278.5 56.5t-228 153.5t-153.5 228t-56.5 278.5zM160 716.5q0 -114.5 44 -216t119.5 -177t177 -119.5 t216 -44t216 44t177.5 119.5t120 177t44 216t-44 216t-120 177.5t-177.5 120t-216 44t-216 -44t-177 -120t-119.5 -177.5t-44 -216zM317 717q0 82 32 154.5t86 127t127 86t155 31.5t154.5 -31.5t127 -86t86 -127t31.5 -154.5t-31.5 -155t-86 -127t-127 -86t-154.5 -32 t-155 32t-127 86t-86 127t-32 155zM477 717q0 -49 19.5 -93t51.5 -76t76 -51.5t93 -19.5t93 19.5t76 51.5t51 76t19 93t-19 93t-51 76t-76 51t-93 19t-93 -19t-76 -51t-51.5 -76t-19.5 -93zM637 717q0 35 22.5 57.5t57.5 22.5t57.5 -22.5t22.5 -57.5t-22.5 -57.5 t-57.5 -22.5t-57.5 22.5t-22.5 57.5z" />
<glyph unicode="p" d="M0 716.5q0 147.5 56.5 278.5t153.5 228.5t228 154t278.5 56.5t278.5 -56.5t228.5 -154t154 -228.5t56.5 -278.5t-56.5 -278.5t-154 -228t-228.5 -153.5t-278.5 -56.5t-278.5 56.5t-228 153.5t-153.5 228t-56.5 278.5zM313 592h279v-279h250v279h280v252h-280v278h-250 v-278h-279v-252z" />
<glyph unicode="q" d="M150 70v587h135q14 2 36.5 16.5t50 49.5t61.5 96.5t73 157.5q14 33 34.5 53.5t49.5 40.5q23 16 42 40t34.5 61.5t25.5 96t17 144.5q0 12 17 17q9 2 19.5 2t22.5 -2q25 -4 51.5 -18.5t46.5 -41.5q16 -23 25.5 -53.5t11.5 -65.5q1 -10 1 -20q0 -25 -4 -50q-5 -36 -17 -69 q-10 -23 -27.5 -56.5t-34 -70.5t-25 -69.5t4.5 -53.5q90 2 168 2q66 0 130 -3t89 -13q14 -6 31.5 -23.5t31 -39t22.5 -43t9 -37.5q-2 -16 -23.5 -40t-23.5 -42q-2 -10 5 -24.5t16.5 -30t17.5 -30t8 -24.5t-9 -22.5t-20.5 -25.5t-21.5 -25.5t-10 -22.5q-2 -23 14 -53.5 t16 -51.5q0 -16 -10 -30.5t-24 -28.5l-25 -25l-18 -22q-8 -16 -5.5 -45t-3.5 -45q-6 -12 -19 -28.5t-29.5 -31t-35 -26t-32.5 -15.5q-45 -14 -126 -16q-27 -1 -54 -1q-54 0 -109 3q-96 4 -201 14z" />
<glyph unicode="r" d="M150 780v584l409 53q106 8 203 13q55 3 109 2h54q81 -2 126 -15q14 -4 31.5 -15t34 -26.5t30.5 -32t20 -28.5q6 -16 2 -45t5 -43q6 -10 18 -22.5t25.5 -27t23.5 -28.5t10 -29q0 -23 -16 -52.5t-14 -51.5q0 -10 10 -22.5t21.5 -26t20.5 -25.5t9 -22q0 -12 -8 -26.5 t-17.5 -29t-16.5 -29t-5 -24.5q2 -18 23.5 -42t23.5 -40q0 -16 -9 -38.5t-22.5 -44t-31 -38t-31.5 -22.5q-25 -10 -88.5 -13.5t-128.5 -3.5q-78 0 -170 2q-12 -20 -4 -54t24.5 -69.5t33.5 -69.5l28 -56q12 -33 17 -69q4 -26 4 -51q0 -10 -1 -20q-2 -35 -11 -66.5t-26 -52.5 q-20 -27 -46.5 -42t-51.5 -19q-12 -2 -22.5 -2t-18.5 2q-16 4 -16 16q-6 86 -17.5 144.5t-27 96.5t-35 61.5t-41.5 39.5q-27 23 -48.5 43.5t-35.5 53.5q-39 96 -73 155.5t-61.5 94t-50 50t-36.5 23.5h-127h-8z" />
<glyph unicode="s" d="M176 894q-4 34 -4 67q0 58 13 114q22 88 76 164t138 127q84 49 178 61q34 4 67 5q58 0 114 -14q88 -22 164.5 -76t126.5 -138q47 -78 61 -163q7 -41 7 -81q0 -43 -8 -86q-15 -82 -59 -155.5t-112 -128.5l322 -471q4 -7 4 -15q0 -4 -1 -9q-3 -13 -14 -19l-121 -72 q-7 -5 -15 -5q-4 0 -8 1q-13 4 -18 16l-268 506q-80 -31 -163 -33h-12q-76 0 -148 24q-78 26 -144.5 77t-111.5 127q-52 84 -64 177zM326 916q8 -62 42.5 -119.5t86 -95t111.5 -52.5q38 -9 78 -9q22 0 45 3q62 8 120 43q57 33 94 85t52 112q10 39 10 79q0 22 -2 44 q-8 63 -43 120.5t-86.5 94t-111.5 51.5q-38 9 -78 9q-22 0 -45 -3q-62 -8 -119.5 -43t-94.5 -86t-52 -111q-10 -39 -10 -78q0 -22 3 -44z" />
<glyph unicode="t" d="M0 717q0 147 56.5 278t153.5 228.5t228 154t279 56.5q150 0 279.5 -56.5t227 -154t154 -228.5t56.5 -278q0 -150 -56.5 -280t-154 -227t-227.5 -153.5t-279 -56.5q-147 0 -278.5 56.5t-228.5 153.5t-153.5 227t-56.5 280zM117 717q0 -125 47 -234.5t128 -191.5 t190.5 -129t234.5 -47t234.5 47t191.5 129t129 191.5t47 234.5t-47 233.5t-129 190.5t-191.5 129t-234.5 47t-234.5 -47t-190.5 -129t-128 -190.5t-47 -233.5zM604 717q0 33 17.5 59.5t46.5 40.5v395h100v-395q12 -6 23 -14l18 -21l258 45l16 -100l-258 -43 q-10 -35 -39.5 -57.5t-68.5 -22.5q-47 0 -80 33t-33 80z" />
<glyph unicode="u" d="M0 92q0 74 37 139.5t101.5 121t154.5 95t196 60.5q51 -37 107.5 -57.5t120 -20.5t120 20.5t107.5 57.5q106 -20 195.5 -60t155 -95.5t102.5 -121t37 -139.5h-1434zM422 938q0 84 22.5 157.5t62.5 129t94 87t115.5 31.5t115 -31.5t93.5 -87t63.5 -129t23.5 -157.5 t-23.5 -158.5t-63.5 -130t-93.5 -87.5t-115 -32t-115.5 32t-94 87.5t-62.5 130t-22.5 158.5z" />
<glyph unicode="v" d="M180 45v1165q0 18 12.5 31.5t30.5 13.5h90v-92h-45v-1075h895v1075h-43v92h90q18 0 31.5 -13t13.5 -32v-1165q0 -18 -13 -31.5t-32 -13.5h-987q-18 0 -30.5 13.5t-12.5 31.5zM358 268v90h717v-90h-717zM358 539v88h717v-88h-717zM358 805v90h717v-90h-717zM358 1075v180 h179v88q0 37 26.5 64t63.5 27h178q39 0 65.5 -27t26.5 -64v-88h178v-180h-717zM627 1255h178v88h-176h-2v-88z" />
<glyph unicode="w" d="M0 225v889q49 41 150.5 67.5t218.5 26.5q94 0 185 -20.5t163 -73.5q49 41 150.5 67.5t217.5 26.5q94 0 185.5 -20.5t163.5 -73.5v-889q-72 51 -163 72.5t-186 21.5q-117 0 -218 -26.5t-150 -67.5q-72 51 -163 72.5t-185 21.5q-117 0 -218.5 -26.5t-150.5 -67.5zM72 342 q63 25 140 38t157 13q59 0 130.5 -10t145.5 -39v729q-53 33 -123.5 48.5t-152.5 15.5q-94 0 -173 -18.5t-124 -43.5v-733zM788 342q63 25 140.5 38t156.5 13q59 0 131 -10t146 -39v729q-53 33 -124 48.5t-153 15.5q-94 0 -172.5 -18.5t-124.5 -43.5v-733z" />
<glyph unicode="x" d="M-2 214q0 28 22 50l453 453l-453 452q-23 23 -22.5 50.5t22.5 50.5l146 143q20 20 49 20.5t49 -20.5l453 -452l452 452q20 20 49 20.5t52 -20.5l143 -143q23 -23 23 -50.5t-23 -50.5l-452 -452l452 -453q23 -23 23 -50.5t-23 -49.5l-143 -144q-23 -23 -51.5 -22.5 t-49.5 22.5l-452 453l-453 -453q-20 -23 -49 -22.5t-49 22.5l-146 144q-22 22 -22 50z" />
<glyph unicode="y" d="M0 88v1077l446 181v-1078zM494 268v1078l446 -181v-1077zM987 88v1077l447 181v-1078z" />
<glyph unicode="z" d="M-1 265q0 21 17 38q8 8 27.5 26.5t43.5 43t52 53.5l56 55l141 142q33 2 61 16q25 12 48.5 37.5t33.5 75.5q23 14 46.5 -2.5t43.5 -34.5q8 10 27.5 29.5t48.5 46.5l-55 57q-52 -25 -109 -25q-22 0 -45 3q-82 13 -141 73q-51 51 -69 120q-8 32 -8 62q0 36 11 72l205 -195 l160 160l-195 205q36 10 72 10q30 0 61 -7q68 -15 121 -69q59 -59 72 -141q3 -21 3 -42q0 -59 -26 -111l60 -58q35 35 68.5 68t61.5 60.5t48.5 47t28.5 27.5q14 16 23 31.5t18 29.5q8 16 14 31l90 64l25 -25l24 -25l-65 -88q-14 -6 -31 -14q-14 -8 -29.5 -18.5t-29.5 -24.5 l-29 -29l-45 -45l-62 -61l-65 -70l592 -561q33 -29 35 -70v-5q0 -37 -27 -64l-21 -19q-27 -27 -64 -26h-5q-41 2 -70 35l-559 589q-27 -25 -45 -44t-29 -29q18 -20 35 -43t2 -47q-49 -10 -75.5 -34t-38.5 -48q-14 -29 -17 -62l-141 -141l-55 -57l-54 -52l-41 -43l-26 -26 q-17 -17 -39 -18h-2q-23 1 -44.5 11.5t-39 23.5t-23.5 22q-8 6 -21.5 23.5t-23.5 38.5q-11 24 -11 47zM98 199q11 -9 20.5 -9.5t16.5 9.5l416 415q9 8 9 17q0 10 -11 20q-9 9 -19 9l-18 -9l-414 -415q-9 -7 -9 -16.5t9 -20.5z" />
<glyph unicode="{" d="M332 717l385 221l385 221v-442v-443l-385 220z" />
<glyph unicode="|" d="M274 1102h443h442l-219 -385l-223 -385l-221 385z" />
<glyph unicode="}" d="M332 274v443v442l385 -221l385 -221l-385 -223z" />
<glyph unicode="~" d="M274 332l222 385l221 385l223 -385l219 -385h-442h-443z" />
<glyph unicode="&#xa0;" d="M0 716.5q0 147.5 56.5 278.5t154.5 228.5t228 154t277.5 56.5t278.5 -56.5t228.5 -154t154 -228.5t56.5 -278.5t-56.5 -278.5t-154 -228t-228.5 -153.5t-278.5 -56.5t-277.5 56.5t-228 153.5t-154.5 228t-56.5 278.5zM150 717q0 -117 45 -220.5t121.5 -180t180 -121.5 t220.5 -45t220 45t180 121.5t122 180t45 220.5t-45 220t-122 180t-180 122t-220 45t-220.5 -45t-180 -122t-121.5 -180t-45 -220zM508 387v330v330l285 -164l284 -166l-284 -164z" />
<glyph unicode="&#xaa;" d="M16 678q-15 18 -15 37t15 39q10 14 23 26l24 25q68 66 144 124t160 101q53 29 110.5 50.5t116.5 31.5q33 4 62.5 6t60.5 2t61.5 -2t61.5 -6q59 -10 116.5 -31.5t110.5 -50.5q84 -43 161 -101.5t142 -123.5q14 -12 25.5 -24.5t23.5 -26.5q14 -19 14.5 -38.5t-14.5 -37.5 q-35 -41 -74.5 -77t-80.5 -69q-90 -72 -191.5 -127t-214.5 -79q-66 -14 -141 -15q-72 0 -142 15q-113 25 -214 80t-191 126q-41 33 -80 69t-74 77zM442 716.5q0 -57.5 21.5 -107.5t58.5 -88t87 -59.5t107.5 -21.5t107.5 21.5t87 59.5t58.5 88t21.5 107.5t-21.5 107.5 t-58.5 87t-87 58.5t-107.5 21.5t-107.5 -21.5t-87 -58.5t-58.5 -87t-21.5 -107.5zM610 717q0 45 31 75.5t76 30.5t75.5 -30.5t30.5 -75.5t-30.5 -76t-75.5 -31t-76 31t-31 76z" />
<glyph unicode="&#xad;" d="M0 633v168q0 23 16.5 40t38.5 17h1323q23 0 39.5 -17.5t16.5 -39.5v-168q0 -23 -16.5 -40.5t-39.5 -17.5h-1323q-23 0 -39 17.5t-16 40.5z" />
<glyph unicode="&#xb2;" d="M0 178v1077h1434v-1077h-1434zM88 268h180v178h-180v-178zM88 627h180v178h-180v-178zM88 985h180v178h-180v-178zM358 268h717v895h-717v-895zM537 446v539l360 -268zM1163 268h180v178h-180v-178zM1163 627h180v178h-180v-178zM1163 985h180v178h-180v-178z" />
<glyph unicode="&#xb3;" d="M2 184q-6 41 8.5 80t45 71t73.5 54.5t96 28.5q47 8 93.5 1t80.5 -26l37 953l998 79q-12 -299 -23 -536q-4 -102 -9 -200.5t-8 -178.5t-6.5 -132t-3.5 -61q-4 -72 -65.5 -130t-157.5 -72q-53 -6 -100 3t-85 30.5t-62.5 55.5t-30.5 74.5t8 79.5t45 71t74 53.5t96 29.5 q51 8 97 -1t83 -30l35 674l-778 -82q-8 -211 -17 -385q-4 -74 -7 -148.5t-6 -138t-5 -109.5t-2 -65q0 -4 -2 -6v-2q-6 -72 -68.5 -127t-154.5 -69q-53 -8 -100.5 1t-85.5 31.5t-62.5 55t-30.5 73.5z" />
<glyph unicode="&#xb9;" d="M0 223v797q0 29 20.5 50.5t51.5 21.5h327l11 71l8 47q4 29 28.5 50.5t53.5 21.5h434q29 0 53.5 -21.5t28.5 -50.5l8 -47l10 -71h328q31 0 51.5 -21.5t20.5 -50.5v-797q0 -29 -20.5 -50t-51.5 -21h-1290q-31 0 -51.5 21t-20.5 50zM305 680q0 -86 33 -161t88 -131t130 -89 t161 -33t160.5 33t130 89t88 131t32.5 161q0 84 -32.5 158.5t-88 131t-130 89.5t-160.5 33t-161 -33t-130 -89.5t-88 -131t-33 -158.5zM395 680q0 68 25.5 126t68.5 101t101.5 68.5t126 25.5t126 -25.5t102.5 -68.5t69.5 -101t25.5 -126t-25.5 -127t-69.5 -102t-102.5 -69 t-126 -26t-126 26t-101.5 69t-68.5 102t-25.5 127zM1188 891h139v84h-139v-84z" />
<glyph unicode="&#xba;" d="M0 716.5q0 147.5 56.5 278.5t153.5 228.5t228 154t278.5 56.5t278.5 -56.5t228.5 -154t154 -228.5t56.5 -278.5t-56.5 -278.5t-154 -228t-228.5 -153.5t-278.5 -56.5t-278.5 56.5t-228 153.5t-153.5 228t-56.5 278.5zM160 716.5q0 -114.5 44 -216t119.5 -177t177 -119.5 t216 -44t216 44t177.5 119.5t120 177t44 216t-44 216t-120 177.5t-177.5 120t-216 44t-216 -44t-177 -120t-119.5 -177.5t-44 -216zM317 717q0 82 32 154.5t86 127t127 86t155 31.5t154.5 -31.5t127 -86t86 -127t31.5 -154.5t-31.5 -155t-86 -127t-127 -86t-154.5 -32 t-155 32t-127 86t-86 127t-32 155zM477 717q0 -49 19.5 -93t51.5 -76t76 -51.5t93 -19.5t93 19.5t76 51.5t51 76t19 93t-19 93t-51 76t-76 51t-93 19t-93 -19t-76 -51t-51.5 -76t-19.5 -93zM637 717q0 35 22.5 57.5t57.5 22.5t57.5 -22.5t22.5 -57.5t-22.5 -57.5 t-57.5 -22.5t-57.5 22.5t-22.5 57.5z" />
<glyph unicode="&#xc0;" d="M805 2253q0 29 19.5 47t46.5 18h114q29 0 47.5 -18.5t18.5 -46.5q0 -27 -18.5 -46.5t-47.5 -19.5h-114q-27 0 -46.5 19.5t-19.5 46.5zM995 1793q0 28 19 46l82 82q20 18 47 18t47 -18q18 -20 18 -47t-18 -47l-82 -82q-18 -18 -47 -19q-27 0 -47 19q-19 20 -19 48z M995 2712.5q0 27.5 19 48.5q20 18 48 18t46 -18l82 -82q18 -20 18 -47t-18 -47q-23 -18 -47 -19q-29 0 -47 19l-82 81q-19 19 -19 46.5zM1118 2253q0 82 32 155.5t87 129t128 87t157 31.5t157.5 -31.5t128 -87t86 -129t31.5 -155.5q0 -84 -31.5 -158t-86 -128t-128 -86 t-157.5 -32t-157 32t-128 86t-87 128t-32 158zM1233 2252.5q0 -59.5 22.5 -112.5t61.5 -92t92 -61.5t112.5 -22.5t113 22.5t92.5 61.5t61.5 92t22.5 112.5t-22.5 113t-61.5 92.5t-92.5 61.5t-113 22.5t-112.5 -22.5t-92 -61.5t-61.5 -92.5t-22.5 -113zM1456 1602v114 q0 29 19.5 47.5t46.5 18.5q29 0 47 -18.5t18 -47.5v-114q0 -27 -18.5 -46.5t-46.5 -19.5q-27 0 -46.5 19.5t-19.5 46.5zM1456 2789v115q0 27 19.5 46.5t46.5 19.5q29 0 47 -19.5t18 -46.5v-115q0 -29 -18.5 -47t-46.5 -18q-27 0 -46.5 18t-19.5 47zM1835 1874q0 27 19 47 q20 18 46.5 18t47.5 -18l82 -82q18 -18 18 -46t-18 -48q-23 -18 -47 -19q-29 0 -48 19l-81 82q-19 20 -19 47zM1835 2631.5q0 26.5 19 47.5l81 82q18 18 46 18t49 -18q18 -20 18 -48t-18 -47l-82 -81q-18 -18 -47 -19q-27 0 -47 19q-19 20 -19 46.5zM1993 2253q0 29 18.5 47 t46.5 18h115q27 0 46.5 -18.5t19.5 -46.5q0 -27 -19.5 -46.5t-46.5 -19.5h-115q-29 0 -47 19.5t-18 46.5zM0 655l1434 709l-904 -885zM647 70v297l148 -56zM647 440l787 924l-256 -1116z" />
<glyph unicode="&#xc2;" d="M1042 2253l360 207v-148h297v297h-147l207 361l209 -361h-150v-297h297v148l361 -207l-361 -209v149h-297v-297h150l-209 -360l-207 360h147v297h-297v-149zM0 655l1434 709l-904 -885zM647 70v297l148 -56zM647 440l787 924l-256 -1116z" />
<glyph unicode="&#xc3;" d="M1054 1536l222 385l221 385l223 -385l219 -385h-442h-443zM0 655l1434 709l-904 -885zM647 70v297l148 -56zM647 440l787 924l-256 -1116z" />
<glyph unicode="&#xc8;" d="M70 2273q0 29 19.5 47t46.5 18h114q29 0 47.5 -18.5t18.5 -46.5q0 -27 -18.5 -46.5t-47.5 -19.5h-114q-27 0 -46.5 19.5t-19.5 46.5zM260 1813q0 28 19 46l82 82q20 18 47 18t47 -18q18 -20 18 -47t-18 -47l-82 -82q-18 -18 -47 -19q-27 0 -47 19q-19 20 -19 48z M260 2732.5q0 27.5 19 48.5q20 18 48 18t46 -18l82 -82q18 -20 18 -47t-18 -47q-23 -18 -47 -19q-29 0 -47 19l-82 81q-19 19 -19 46.5zM383 2273q0 82 32 155.5t87 129t128 87t157 31.5t157.5 -31.5t128 -87t86 -129t31.5 -155.5q0 -84 -31.5 -158t-86 -128t-128 -86 t-157.5 -32t-157 32t-128 86t-87 128t-32 158zM498 2272.5q0 -59.5 22.5 -112.5t61.5 -92t92 -61.5t112.5 -22.5t113 22.5t92.5 61.5t61.5 92t22.5 112.5t-22.5 113t-61.5 92.5t-92.5 61.5t-113 22.5t-112.5 -22.5t-92 -61.5t-61.5 -92.5t-22.5 -113zM721 1622v114 q0 29 19.5 47.5t46.5 18.5q29 0 47 -18.5t18 -47.5v-114q0 -27 -18.5 -46.5t-46.5 -19.5q-27 0 -46.5 19.5t-19.5 46.5zM721 2809v115q0 27 19.5 46.5t46.5 19.5q29 0 47 -19.5t18 -46.5v-115q0 -29 -18.5 -47t-46.5 -18q-27 0 -46.5 18t-19.5 47zM1100 1894q0 27 19 47 q20 18 46.5 18t47.5 -18l82 -82q18 -18 18 -46t-18 -48q-23 -18 -47 -19q-29 0 -48 19l-81 82q-19 20 -19 47zM1100 2651.5q0 26.5 19 47.5l81 82q18 18 46 18t49 -18q18 -20 18 -48t-18 -47l-82 -81q-18 -18 -47 -19q-27 0 -47 19q-19 20 -19 46.5zM1258 2273q0 29 18.5 47 t46.5 18h115q27 0 46.5 -18.5t19.5 -46.5q0 -27 -19.5 -46.5t-46.5 -19.5h-115q-29 0 -47 19.5t-18 46.5zM117 0v59q0 100 19.5 195.5t56 180.5t89 157t117.5 125q-66 51 -118 122.5t-88.5 156.5t-56 180.5t-19.5 197.5v60h1200v-60q0 -102 -19.5 -197.5t-56.5 -180.5 t-89 -156.5t-118 -122.5q131 -106 207 -280.5t76 -377.5v-59h-1200zM238 117h958q-6 90 -28.5 174t-60.5 154.5t-90 127t-114 93.5l-88 51l88 51q125 72 204 218.5t89 330.5h-958q12 -184 91 -330.5t203 -218.5l86 -51l-86 -51q-61 -37 -113 -93.5t-90 -127t-61.5 -154.5 t-29.5 -174zM391 219q31 72 68 137q33 55 78 110.5t102 84.5v2h2q2 0 2 2q20 12 34.5 54t16.5 92q0 8 1 17q0 41 -9 80q-10 46 -39 64q-41 23 -74.5 66t-56.5 84q-27 49 -49 102h502q-23 -53 -49 -102q-25 -41 -59 -84t-75 -66q-29 -18 -38 -64q-8 -35 -8 -74v-23 q3 -50 16.5 -92t34.5 -54q0 -2 2 -2h4v-2q55 -29 100 -84t78 -111q37 -66 67 -137h-651z" />
<glyph unicode="&#xca;" d="M307 2273l360 207v-148h297v297h-147l207 361l209 -361h-150v-297h297v148l361 -207l-361 -209v149h-297v-297h150l-209 -360l-207 360h147v297h-297v-149zM117 0v59q0 100 19.5 195.5t56 180.5t89 157t117.5 125q-66 51 -118 122.5t-88.5 156.5t-56 180.5t-19.5 197.5 v60h1200v-60q0 -102 -19.5 -197.5t-56.5 -180.5t-89 -156.5t-118 -122.5q131 -106 207 -280.5t76 -377.5v-59h-1200zM238 117h958q-6 90 -28.5 174t-60.5 154.5t-90 127t-114 93.5l-88 51l88 51q125 72 204 218.5t89 330.5h-958q12 -184 91 -330.5t203 -218.5l86 -51 l-86 -51q-61 -37 -113 -93.5t-90 -127t-61.5 -154.5t-29.5 -174zM391 219q31 72 68 137q33 55 78 110.5t102 84.5v2h2q2 0 2 2q20 12 34.5 54t16.5 92q0 8 1 17q0 41 -9 80q-10 46 -39 64q-41 23 -74.5 66t-56.5 84q-27 49 -49 102h502q-23 -53 -49 -102q-25 -41 -59 -84 t-75 -66q-29 -18 -38 -64q-8 -35 -8 -74v-23q3 -50 16.5 -92t34.5 -54q0 -2 2 -2h4v-2q55 -29 100 -84t78 -111q37 -66 67 -137h-651z" />
<glyph unicode="&#xcc;" d="M152 2253q0 29 19.5 47t46.5 18h114q29 0 47.5 -18.5t18.5 -46.5q0 -27 -18.5 -46.5t-47.5 -19.5h-114q-27 0 -46.5 19.5t-19.5 46.5zM342 1793q0 28 19 46l82 82q20 18 47 18t47 -18q18 -20 18 -47t-18 -47l-82 -82q-18 -18 -47 -19q-27 0 -47 19q-19 20 -19 48z M342 2712.5q0 27.5 19 48.5q20 18 48 18t46 -18l82 -82q18 -20 18 -47t-18 -47q-23 -18 -47 -19q-29 0 -47 19l-82 81q-19 19 -19 46.5zM465 2253q0 82 32 155.5t87 129t128 87t157 31.5t157.5 -31.5t128 -87t86 -129t31.5 -155.5q0 -84 -31.5 -158t-86 -128t-128 -86 t-157.5 -32t-157 32t-128 86t-87 128t-32 158zM580 2252.5q0 -59.5 22.5 -112.5t61.5 -92t92 -61.5t112.5 -22.5t113 22.5t92.5 61.5t61.5 92t22.5 112.5t-22.5 113t-61.5 92.5t-92.5 61.5t-113 22.5t-112.5 -22.5t-92 -61.5t-61.5 -92.5t-22.5 -113zM803 1602v114 q0 29 19.5 47.5t46.5 18.5q29 0 47 -18.5t18 -47.5v-114q0 -27 -18.5 -46.5t-46.5 -19.5q-27 0 -46.5 19.5t-19.5 46.5zM803 2789v115q0 27 19.5 46.5t46.5 19.5q29 0 47 -19.5t18 -46.5v-115q0 -29 -18.5 -47t-46.5 -18q-27 0 -46.5 18t-19.5 47zM1182 1874q0 27 19 47 q20 18 46.5 18t47.5 -18l82 -82q18 -18 18 -46t-18 -48q-23 -18 -47 -19q-29 0 -48 19l-81 82q-19 20 -19 47zM1182 2631.5q0 26.5 19 47.5l81 82q18 18 46 18t49 -18q18 -20 18 -48t-18 -47l-82 -81q-18 -18 -47 -19q-27 0 -47 19q-19 20 -19 46.5zM1340 2253q0 29 18.5 47 t46.5 18h115q27 0 46.5 -18.5t19.5 -46.5q0 -27 -19.5 -46.5t-46.5 -19.5h-115q-29 0 -47 19.5t-18 46.5zM0 475l717 717l252 -254v104h180v-284l285 -283h-174v-475h-453v293h-180v-293h-453v475h-174z" />
<glyph unicode="&#xce;" d="M389 2253l360 207v-148h297v297h-147l207 361l209 -361h-150v-297h297v148l361 -207l-361 -209v149h-297v-297h150l-209 -360l-207 360h147v297h-297v-149zM0 475l717 717l252 -254v104h180v-284l285 -283h-174v-475h-453v293h-180v-293h-453v475h-174z" />
<glyph unicode="&#xd1;" d="M344 1536l222 385l221 385l223 -385l219 -385h-442h-443zM0 629q0 147 56.5 278t153.5 228.5t228 154t278.5 56.5t278.5 -56.5t228.5 -154t154 -228.5t56.5 -278q0 -152 -60.5 -289t-171.5 -240l-14 -12h-942l-15 12q-111 102 -171 239.5t-60 289.5zM94 602 q0 -74 23 -151l100 32q4 -8 6 -15t4 -15l-100 -33q49 -135 154 -240h872q104 104 154 240l-101 33q2 8 4 15t7 15l100 -32q20 74 24 151h-208q0 6 1 12.5t1 14.5q0 6 -1 12t-1 12h208q-4 82 -24 152l-100 -33q-4 8 -7 16l-4 17l101 33q-29 78 -70 135l-170 -121 q-12 20 -29 41l168 123q-49 61 -110 108l-62 -86q-6 4 -12 9.5t-14 11.5l63 84q-61 43 -137 71l-64 -198l-24 8l-27 8l66 199q-37 10 -74 15t-78 7v-106h-16h-17v106q-41 -2 -77.5 -7t-73.5 -15l65 -199q-14 -4 -26 -8l-25 -8l-63 198q-76 -29 -138 -71l64 -84 q-8 -6 -14 -11.5t-13 -9.5l-61 86q-61 -47 -111 -108l168 -123q-16 -20 -28 -41l-170 121q-41 -57 -70 -135l100 -33l-4 -17l-6 -16l-100 33q-23 -74 -23 -152h207q0 -6 -1 -12t-1 -12q0 -8 1 -14.5t1 -12.5h-207zM389 322l574 688l41 -31l-478 -758z" />
<glyph unicode="&#xd2;" d="M360 2253q0 29 19.5 47t46.5 18h114q29 0 47.5 -18.5t18.5 -46.5q0 -27 -18.5 -46.5t-47.5 -19.5h-114q-27 0 -46.5 19.5t-19.5 46.5zM550 1793q0 28 19 46l82 82q20 18 47 18t47 -18q18 -20 18 -47t-18 -47l-82 -82q-18 -18 -47 -19q-27 0 -47 19q-19 20 -19 48z M550 2712.5q0 27.5 19 48.5q20 18 48 18t46 -18l82 -82q18 -20 18 -47t-18 -47q-23 -18 -47 -19q-29 0 -47 19l-82 81q-19 19 -19 46.5zM673 2253q0 82 32 155.5t87 129t128 87t157 31.5t157.5 -31.5t128 -87t86 -129t31.5 -155.5q0 -84 -31.5 -158t-86 -128t-128 -86 t-157.5 -32t-157 32t-128 86t-87 128t-32 158zM788 2252.5q0 -59.5 22.5 -112.5t61.5 -92t92 -61.5t112.5 -22.5t113 22.5t92.5 61.5t61.5 92t22.5 112.5t-22.5 113t-61.5 92.5t-92.5 61.5t-113 22.5t-112.5 -22.5t-92 -61.5t-61.5 -92.5t-22.5 -113zM1011 1602v114 q0 29 19.5 47.5t46.5 18.5q29 0 47 -18.5t18 -47.5v-114q0 -27 -18.5 -46.5t-46.5 -19.5q-27 0 -46.5 19.5t-19.5 46.5zM1011 2789v115q0 27 19.5 46.5t46.5 19.5q29 0 47 -19.5t18 -46.5v-115q0 -29 -18.5 -47t-46.5 -18q-27 0 -46.5 18t-19.5 47zM1390 1874q0 27 19 47 q20 18 46.5 18t47.5 -18l82 -82q18 -18 18 -46t-18 -48q-23 -18 -47 -19q-29 0 -48 19l-81 82q-19 20 -19 47zM1390 2631.5q0 26.5 19 47.5l81 82q18 18 46 18t49 -18q18 -20 18 -48t-18 -47l-82 -81q-18 -18 -47 -19q-27 0 -47 19q-19 20 -19 46.5zM1548 2253q0 29 18.5 47 t46.5 18h115q27 0 46.5 -18.5t19.5 -46.5q0 -27 -19.5 -46.5t-46.5 -19.5h-115q-29 0 -47 19.5t-18 46.5zM0 279l600 602q-15 55 -15 111q0 52 13 105q27 110 111 193q61 61 139 92t158.5 31t159.5 -31.5t141 -93.5q63 -63 95 -142t32 -160t-30 -159.5t-91 -140.5 q-86 -84 -195 -108q-50 -11 -100 -12l-117 16l-119 -123h-192v-146h-141v-145h-146v-148h-252q-27 2 -38 13.5t-11 40.5zM1026 1123q0 -46 33 -81q35 -35 81 -34.5t81 32.5q33 35 32.5 81t-34.5 79q-35 35 -81 35t-79 -33t-33 -79z" />
<glyph unicode="&#xd4;" d="M598 2253l360 207v-148h297v297h-147l207 361l209 -361h-150v-297h297v148l361 -207l-361 -209v149h-297v-297h150l-209 -360l-207 360h147v297h-297v-149zM0 279l600 602q-15 55 -15 111q0 52 13 105q27 110 111 193q61 61 139 92t158.5 31t159.5 -31.5t141 -93.5 q63 -63 95 -142t32 -160t-30 -159.5t-91 -140.5q-86 -84 -195 -108q-50 -11 -100 -12l-117 16l-119 -123h-192v-146h-141v-145h-146v-148h-252q-27 2 -38 13.5t-11 40.5zM1026 1123q0 -46 33 -81q35 -35 81 -34.5t81 32.5q33 35 32.5 81t-34.5 79q-35 35 -81 35t-79 -33 t-33 -79z" />
<glyph unicode="&#xd5;" d="M610 1536l222 385l221 385l223 -385l219 -385h-442h-443zM0 279l600 602q-15 55 -15 111q0 52 13 105q27 110 111 193q61 61 139 92t158.5 31t159.5 -31.5t141 -93.5q63 -63 95 -142t32 -160t-30 -159.5t-91 -140.5q-86 -84 -195 -108q-50 -11 -100 -12l-117 16 l-119 -123h-192v-146h-141v-145h-146v-148h-252q-27 2 -38 13.5t-11 40.5zM1026 1123q0 -46 33 -81q35 -35 81 -34.5t81 32.5q33 35 32.5 81t-34.5 79q-35 35 -81 35t-79 -33t-33 -79z" />
<glyph unicode="&#xd9;" d="M199 2253q0 29 19.5 47t46.5 18h114q29 0 47.5 -18.5t18.5 -46.5q0 -27 -18.5 -46.5t-47.5 -19.5h-114q-27 0 -46.5 19.5t-19.5 46.5zM389 1793q0 28 19 46l82 82q20 18 47 18t47 -18q18 -20 18 -47t-18 -47l-82 -82q-18 -18 -47 -19q-27 0 -47 19q-19 20 -19 48z M389 2712.5q0 27.5 19 48.5q20 18 48 18t46 -18l82 -82q18 -20 18 -47t-18 -47q-23 -18 -47 -19q-29 0 -47 19l-82 81q-19 19 -19 46.5zM512 2253q0 82 32 155.5t87 129t128 87t157 31.5t157.5 -31.5t128 -87t86 -129t31.5 -155.5q0 -84 -31.5 -158t-86 -128t-128 -86 t-157.5 -32t-157 32t-128 86t-87 128t-32 158zM627 2252.5q0 -59.5 22.5 -112.5t61.5 -92t92 -61.5t112.5 -22.5t113 22.5t92.5 61.5t61.5 92t22.5 112.5t-22.5 113t-61.5 92.5t-92.5 61.5t-113 22.5t-112.5 -22.5t-92 -61.5t-61.5 -92.5t-22.5 -113zM850 1602v114 q0 29 19.5 47.5t46.5 18.5q29 0 47 -18.5t18 -47.5v-114q0 -27 -18.5 -46.5t-46.5 -19.5q-27 0 -46.5 19.5t-19.5 46.5zM850 2789v115q0 27 19.5 46.5t46.5 19.5q29 0 47 -19.5t18 -46.5v-115q0 -29 -18.5 -47t-46.5 -18q-27 0 -46.5 18t-19.5 47zM1229 1874q0 27 19 47 q20 18 46.5 18t47.5 -18l82 -82q18 -18 18 -46t-18 -48q-23 -18 -47 -19q-29 0 -48 19l-81 82q-19 20 -19 47zM1229 2631.5q0 26.5 19 47.5l81 82q18 18 46 18t49 -18q18 -20 18 -48t-18 -47l-82 -81q-18 -18 -47 -19q-27 0 -47 19q-19 20 -19 46.5zM1387 2253q0 29 18.5 47 t46.5 18h115q27 0 46.5 -18.5t19.5 -46.5q0 -27 -19.5 -46.5t-46.5 -19.5h-115q-29 0 -47 19.5t-18 46.5zM0 446q10 63 80 110.5t172 57.5v11q-33 20 -52.5 62t-19.5 95q0 72 36 123t89 51t90 -51t37 -123q0 -53 -20.5 -95t-53.5 -62v-11q29 -4 54.5 -10t48.5 -14 q-121 -53 -172 -144h-289zM303 326q6 43 35 88t74 84t104 66.5t127 33.5q2 6 2 16q-45 29 -71.5 86.5t-26.5 128.5q0 49 13 91.5t35.5 74t54.5 50t67 18.5t65.5 -18.5t54 -50t37 -73.5t13.5 -92q0 -72 -26.5 -129t-72.5 -86v-16q70 -6 129.5 -33.5t104.5 -66.5t73.5 -84 t34.5 -88h-827zM971 590q23 8 49.5 14t54.5 10v11q-33 20 -53.5 62t-20.5 95q0 72 37 123t90 51q51 0 89 -51t38 -123q0 -53 -20.5 -95t-52.5 -62v-11q102 -10 171.5 -57t80.5 -111h-289q-27 43 -71 80t-103 64z" />
<glyph unicode="&#xdb;" d="M436 2253l360 207v-148h297v297h-147l207 361l209 -361h-150v-297h297v148l361 -207l-361 -209v149h-297v-297h150l-209 -360l-207 360h147v297h-297v-149zM0 446q10 63 80 110.5t172 57.5v11q-33 20 -52.5 62t-19.5 95q0 72 36 123t89 51t90 -51t37 -123 q0 -53 -20.5 -95t-53.5 -62v-11q29 -4 54.5 -10t48.5 -14q-121 -53 -172 -144h-289zM303 326q6 43 35 88t74 84t104 66.5t127 33.5q2 6 2 16q-45 29 -71.5 86.5t-26.5 128.5q0 49 13 91.5t35.5 74t54.5 50t67 18.5t65.5 -18.5t54 -50t37 -73.5t13.5 -92q0 -72 -26.5 -129 t-72.5 -86v-16q70 -6 129.5 -33.5t104.5 -66.5t73.5 -84t34.5 -88h-827zM971 590q23 8 49.5 14t54.5 10v11q-33 20 -53.5 62t-20.5 95q0 72 37 123t90 51q51 0 89 -51t38 -123q0 -53 -20.5 -95t-52.5 -62v-11q102 -10 171.5 -57t80.5 -111h-289q-27 43 -71 80t-103 64z" />
<glyph unicode="&#xe0;" d="M184 2273q0 29 19.5 47t46.5 18h114q29 0 47.5 -18.5t18.5 -46.5q0 -27 -18.5 -46.5t-47.5 -19.5h-114q-27 0 -46.5 19.5t-19.5 46.5zM374 1813q0 28 19 46l82 82q20 18 47 18t47 -18q18 -20 18 -47t-18 -47l-82 -82q-18 -18 -47 -19q-27 0 -47 19q-19 20 -19 48z M374 2732.5q0 27.5 19 48.5q20 18 48 18t46 -18l82 -82q18 -20 18 -47t-18 -47q-23 -18 -47 -19q-29 0 -47 19l-82 81q-19 19 -19 46.5zM497 2273q0 82 32 155.5t87 129t128 87t157 31.5t157.5 -31.5t128 -87t86 -129t31.5 -155.5q0 -84 -31.5 -158t-86 -128t-128 -86 t-157.5 -32t-157 32t-128 86t-87 128t-32 158zM612 2272.5q0 -59.5 22.5 -112.5t61.5 -92t92 -61.5t112.5 -22.5t113 22.5t92.5 61.5t61.5 92t22.5 112.5t-22.5 113t-61.5 92.5t-92.5 61.5t-113 22.5t-112.5 -22.5t-92 -61.5t-61.5 -92.5t-22.5 -113zM835 1622v114 q0 29 19.5 47.5t46.5 18.5q29 0 47 -18.5t18 -47.5v-114q0 -27 -18.5 -46.5t-46.5 -19.5q-27 0 -46.5 19.5t-19.5 46.5zM835 2809v115q0 27 19.5 46.5t46.5 19.5q29 0 47 -19.5t18 -46.5v-115q0 -29 -18.5 -47t-46.5 -18q-27 0 -46.5 18t-19.5 47zM1214 1894q0 27 19 47 q20 18 46.5 18t47.5 -18l82 -82q18 -18 18 -46t-18 -48q-23 -18 -47 -19q-29 0 -48 19l-81 82q-19 20 -19 47zM1214 2651.5q0 26.5 19 47.5l81 82q18 18 46 18t49 -18q18 -20 18 -48t-18 -47l-82 -81q-18 -18 -47 -19q-27 0 -47 19q-19 20 -19 46.5zM1372 2273q0 29 18.5 47 t46.5 18h115q27 0 46.5 -18.5t19.5 -46.5q0 -27 -19.5 -46.5t-46.5 -19.5h-115q-29 0 -47 19.5t-18 46.5zM16 678q-15 18 -15 37t15 39q10 14 23 26l24 25q68 66 144 124t160 101q53 29 110.5 50.5t116.5 31.5q33 4 62.5 6t60.5 2t61.5 -2t61.5 -6q59 -10 116.5 -31.5 t110.5 -50.5q84 -43 161 -101.5t142 -123.5q14 -12 25.5 -24.5t23.5 -26.5q14 -19 14.5 -38.5t-14.5 -37.5q-35 -41 -74.5 -77t-80.5 -69q-90 -72 -191.5 -127t-214.5 -79q-66 -14 -141 -15q-72 0 -142 15q-113 25 -214 80t-191 126q-41 33 -80 69t-74 77zM442 716.5 q0 -57.5 21.5 -107.5t58.5 -88t87 -59.5t107.5 -21.5t107.5 21.5t87 59.5t58.5 88t21.5 107.5t-21.5 107.5t-58.5 87t-87 58.5t-107.5 21.5t-107.5 -21.5t-87 -58.5t-58.5 -87t-21.5 -107.5zM610 717q0 45 31 75.5t76 30.5t75.5 -30.5t30.5 -75.5t-30.5 -76t-75.5 -31 t-76 31t-31 76z" />
<glyph unicode="&#xe2;" d="M422 2273l360 207v-148h297v297h-147l207 361l209 -361h-150v-297h297v148l361 -207l-361 -209v149h-297v-297h150l-209 -360l-207 360h147v297h-297v-149zM16 678q-15 18 -15 37t15 39q10 14 23 26l24 25q68 66 144 124t160 101q53 29 110.5 50.5t116.5 31.5 q33 4 62.5 6t60.5 2t61.5 -2t61.5 -6q59 -10 116.5 -31.5t110.5 -50.5q84 -43 161 -101.5t142 -123.5q14 -12 25.5 -24.5t23.5 -26.5q14 -19 14.5 -38.5t-14.5 -37.5q-35 -41 -74.5 -77t-80.5 -69q-90 -72 -191.5 -127t-214.5 -79q-66 -14 -141 -15q-72 0 -142 15 q-113 25 -214 80t-191 126q-41 33 -80 69t-74 77zM442 716.5q0 -57.5 21.5 -107.5t58.5 -88t87 -59.5t107.5 -21.5t107.5 21.5t87 59.5t58.5 88t21.5 107.5t-21.5 107.5t-58.5 87t-87 58.5t-107.5 21.5t-107.5 -21.5t-87 -58.5t-58.5 -87t-21.5 -107.5zM610 717 q0 45 31 75.5t76 30.5t75.5 -30.5t30.5 -75.5t-30.5 -76t-75.5 -31t-76 31t-31 76z" />
<glyph unicode="&#xe3;" d="M434 1557l222 385l221 385l223 -385l219 -385h-442h-443zM16 678q-15 18 -15 37t15 39q10 14 23 26l24 25q68 66 144 124t160 101q53 29 110.5 50.5t116.5 31.5q33 4 62.5 6t60.5 2t61.5 -2t61.5 -6q59 -10 116.5 -31.5t110.5 -50.5q84 -43 161 -101.5t142 -123.5 q14 -12 25.5 -24.5t23.5 -26.5q14 -19 14.5 -38.5t-14.5 -37.5q-35 -41 -74.5 -77t-80.5 -69q-90 -72 -191.5 -127t-214.5 -79q-66 -14 -141 -15q-72 0 -142 15q-113 25 -214 80t-191 126q-41 33 -80 69t-74 77zM442 716.5q0 -57.5 21.5 -107.5t58.5 -88t87 -59.5 t107.5 -21.5t107.5 21.5t87 59.5t58.5 88t21.5 107.5t-21.5 107.5t-58.5 87t-87 58.5t-107.5 21.5t-107.5 -21.5t-87 -58.5t-58.5 -87t-21.5 -107.5zM610 717q0 45 31 75.5t76 30.5t75.5 -30.5t30.5 -75.5t-30.5 -76t-75.5 -31t-76 31t-31 76z" />
<glyph unicode="&#xe8;" d="M82 2273q0 29 19.5 47t46.5 18h114q29 0 47.5 -18.5t18.5 -46.5q0 -27 -18.5 -46.5t-47.5 -19.5h-114q-27 0 -46.5 19.5t-19.5 46.5zM272 1813q0 28 19 46l82 82q20 18 47 18t47 -18q18 -20 18 -47t-18 -47l-82 -82q-18 -18 -47 -19q-27 0 -47 19q-19 20 -19 48z M272 2732.5q0 27.5 19 48.5q20 18 48 18t46 -18l82 -82q18 -20 18 -47t-18 -47q-23 -18 -47 -19q-29 0 -47 19l-82 81q-19 19 -19 46.5zM395 2273q0 82 32 155.5t87 129t128 87t157 31.5t157.5 -31.5t128 -87t86 -129t31.5 -155.5q0 -84 -31.5 -158t-86 -128t-128 -86 t-157.5 -32t-157 32t-128 86t-87 128t-32 158zM510 2272.5q0 -59.5 22.5 -112.5t61.5 -92t92 -61.5t112.5 -22.5t113 22.5t92.5 61.5t61.5 92t22.5 112.5t-22.5 113t-61.5 92.5t-92.5 61.5t-113 22.5t-112.5 -22.5t-92 -61.5t-61.5 -92.5t-22.5 -113zM733 1622v114 q0 29 19.5 47.5t46.5 18.5q29 0 47 -18.5t18 -47.5v-114q0 -27 -18.5 -46.5t-46.5 -19.5q-27 0 -46.5 19.5t-19.5 46.5zM733 2809v115q0 27 19.5 46.5t46.5 19.5q29 0 47 -19.5t18 -46.5v-115q0 -29 -18.5 -47t-46.5 -18q-27 0 -46.5 18t-19.5 47zM1112 1894q0 27 19 47 q20 18 46.5 18t47.5 -18l82 -82q18 -18 18 -46t-18 -48q-23 -18 -47 -19q-29 0 -48 19l-81 82q-19 20 -19 47zM1112 2651.5q0 26.5 19 47.5l81 82q18 18 46 18t49 -18q18 -20 18 -48t-18 -47l-82 -81q-18 -18 -47 -19q-27 0 -47 19q-19 20 -19 46.5zM1270 2273q0 29 18.5 47 t46.5 18h115q27 0 46.5 -18.5t19.5 -46.5q0 -27 -19.5 -46.5t-46.5 -19.5h-115q-29 0 -47 19.5t-18 46.5zM0 877l539 12l178 510l178 -510l539 -12l-430 -324l155 -518l-442 307l-443 -307l156 518zM717 449l289 -201l-103 336l281 213l-350 8l-117 332v-688z" />
<glyph unicode="&#xea;" d="M322 2273l360 207v-148h297v297h-147l207 361l209 -361h-150v-297h297v148l361 -207l-361 -209v149h-297v-297h150l-209 -360l-207 360h147v297h-297v-149zM0 877l539 12l178 510l178 -510l539 -12l-430 -324l155 -518l-442 307l-443 -307l156 518zM717 449l289 -201 l-103 336l281 213l-350 8l-117 332v-688z" />
<glyph unicode="&#xec;" d="M70 2273q0 29 19.5 47t46.5 18h114q29 0 47.5 -18.5t18.5 -46.5q0 -27 -18.5 -46.5t-47.5 -19.5h-114q-27 0 -46.5 19.5t-19.5 46.5zM260 1813q0 28 19 46l82 82q20 18 47 18t47 -18q18 -20 18 -47t-18 -47l-82 -82q-18 -18 -47 -19q-27 0 -47 19q-19 20 -19 48z M260 2732.5q0 27.5 19 48.5q20 18 48 18t46 -18l82 -82q18 -20 18 -47t-18 -47q-23 -18 -47 -19q-29 0 -47 19l-82 81q-19 19 -19 46.5zM383 2273q0 82 32 155.5t87 129t128 87t157 31.5t157.5 -31.5t128 -87t86 -129t31.5 -155.5q0 -84 -31.5 -158t-86 -128t-128 -86 t-157.5 -32t-157 32t-128 86t-87 128t-32 158zM498 2272.5q0 -59.5 22.5 -112.5t61.5 -92t92 -61.5t112.5 -22.5t113 22.5t92.5 61.5t61.5 92t22.5 112.5t-22.5 113t-61.5 92.5t-92.5 61.5t-113 22.5t-112.5 -22.5t-92 -61.5t-61.5 -92.5t-22.5 -113zM721 1622v114 q0 29 19.5 47.5t46.5 18.5q29 0 47 -18.5t18 -47.5v-114q0 -27 -18.5 -46.5t-46.5 -19.5q-27 0 -46.5 19.5t-19.5 46.5zM721 2809v115q0 27 19.5 46.5t46.5 19.5q29 0 47 -19.5t18 -46.5v-115q0 -29 -18.5 -47t-46.5 -18q-27 0 -46.5 18t-19.5 47zM1100 1894q0 27 19 47 q20 18 46.5 18t47.5 -18l82 -82q18 -18 18 -46t-18 -48q-23 -18 -47 -19q-29 0 -48 19l-81 82q-19 20 -19 47zM1100 2651.5q0 26.5 19 47.5l81 82q18 18 46 18t49 -18q18 -20 18 -48t-18 -47l-82 -81q-18 -18 -47 -19q-27 0 -47 19q-19 20 -19 46.5zM1258 2273q0 29 18.5 47 t46.5 18h115q27 0 46.5 -18.5t19.5 -46.5q0 -27 -19.5 -46.5t-46.5 -19.5h-115q-29 0 -47 19.5t-18 46.5zM0 716.5q0 147.5 56.5 278.5t153.5 228.5t228 154t278.5 56.5t278.5 -56.5t228.5 -154t154 -228.5t56.5 -278.5t-56.5 -278.5t-154 -227t-228.5 -152.5t-278.5 -56.5 t-278.5 56.5t-228 152.5t-153.5 227t-56.5 278.5zM477 786q10 0 23.5 -2t26 -6t22.5 -7t16 -7q10 -4 16.5 -11.5t12.5 -15.5q12 -18 12 -41v-329q0 -29 -10 -39q-10 -16 -31 -23q-8 -2 -15 -4t-17.5 -2t-18.5 -1t-18 -3v-88h460v88q-10 2 -19 3t-17 5q-10 2 -17.5 4t-15.5 6 q-20 6 -31 23q-12 14 -12 39v467l-367 -8v-48zM561 1094q0 -55 43 -95q41 -39 103 -38q59 0 100 38.5t41 94t-41 94.5t-100 39q-61 0 -103 -39q-43 -41 -43 -94z" />
<glyph unicode="&#xee;" d="M307 2273l360 207v-148h297v297h-147l207 361l209 -361h-150v-297h297v148l361 -207l-361 -209v149h-297v-297h150l-209 -360l-207 360h147v297h-297v-149zM0 716.5q0 147.5 56.5 278.5t153.5 228.5t228 154t278.5 56.5t278.5 -56.5t228.5 -154t154 -228.5t56.5 -278.5 t-56.5 -278.5t-154 -227t-228.5 -152.5t-278.5 -56.5t-278.5 56.5t-228 152.5t-153.5 227t-56.5 278.5zM477 786q10 0 23.5 -2t26 -6t22.5 -7t16 -7q10 -4 16.5 -11.5t12.5 -15.5q12 -18 12 -41v-329q0 -29 -10 -39q-10 -16 -31 -23q-8 -2 -15 -4t-17.5 -2t-18.5 -1t-18 -3 v-88h460v88q-10 2 -19 3t-17 5q-10 2 -17.5 4t-15.5 6q-20 6 -31 23q-12 14 -12 39v467l-367 -8v-48zM561 1094q0 -55 43 -95q41 -39 103 -38q59 0 100 38.5t41 94t-41 94.5t-100 39q-61 0 -103 -39q-43 -41 -43 -94z" />
<glyph unicode="&#xf1;" d="M581 1557l222 385l221 385l223 -385l219 -385h-442h-443zM0 716.5q0 147.5 56.5 278.5t153.5 228.5t228 154t278.5 56.5t277.5 -56.5t227.5 -154t154 -228.5t56.5 -278.5t-56.5 -278.5t-154 -228t-227.5 -153.5t-277.5 -56.5t-278.5 56.5t-228 153.5t-153.5 228 t-56.5 278.5zM31 717q0 -72 14 -137.5t39 -124.5l317 131q-27 66 -26 131q0 35 7 66.5t19 62.5l-317 133q-25 -59 -39 -125.5t-14 -136.5zM408 716.5q0 -63.5 24.5 -119.5t66.5 -98t98 -66.5t119.5 -24.5t120 24.5t98.5 66.5t66.5 98t24.5 119.5t-24.5 120t-66.5 98.5 t-98.5 66.5t-120 24.5t-119.5 -24.5t-98 -66.5t-66.5 -98.5t-24.5 -120zM453 84q125 -53 264 -53q137 0 262 53l-133 317q-31 -12 -62.5 -19t-66.5 -7q-66 0 -131 26zM453 1350l133 -320q59 27 131 27q70 0 129 -27l133 320q-121 51 -262 51q-143 0 -264 -51zM1030 586 l320 -131q51 125 51 262t-51 262l-320 -133q27 -59 27 -129q0 -72 -27 -131z" />
<glyph unicode="&#xf2;" d="M70 2273q0 29 19.5 47t46.5 18h114q29 0 47.5 -18.5t18.5 -46.5q0 -27 -18.5 -46.5t-47.5 -19.5h-114q-27 0 -46.5 19.5t-19.5 46.5zM260 1813q0 28 19 46l82 82q20 18 47 18t47 -18q18 -20 18 -47t-18 -47l-82 -82q-18 -18 -47 -19q-27 0 -47 19q-19 20 -19 48z M260 2732.5q0 27.5 19 48.5q20 18 48 18t46 -18l82 -82q18 -20 18 -47t-18 -47q-23 -18 -47 -19q-29 0 -47 19l-82 81q-19 19 -19 46.5zM383 2273q0 82 32 155.5t87 129t128 87t157 31.5t157.5 -31.5t128 -87t86 -129t31.5 -155.5q0 -84 -31.5 -158t-86 -128t-128 -86 t-157.5 -32t-157 32t-128 86t-87 128t-32 158zM498 2272.5q0 -59.5 22.5 -112.5t61.5 -92t92 -61.5t112.5 -22.5t113 22.5t92.5 61.5t61.5 92t22.5 112.5t-22.5 113t-61.5 92.5t-92.5 61.5t-113 22.5t-112.5 -22.5t-92 -61.5t-61.5 -92.5t-22.5 -113zM721 1622v114 q0 29 19.5 47.5t46.5 18.5q29 0 47 -18.5t18 -47.5v-114q0 -27 -18.5 -46.5t-46.5 -19.5q-27 0 -46.5 19.5t-19.5 46.5zM721 2809v115q0 27 19.5 46.5t46.5 19.5q29 0 47 -19.5t18 -46.5v-115q0 -29 -18.5 -47t-46.5 -18q-27 0 -46.5 18t-19.5 47zM1100 1894q0 27 19 47 q20 18 46.5 18t47.5 -18l82 -82q18 -18 18 -46t-18 -48q-23 -18 -47 -19q-29 0 -48 19l-81 82q-19 20 -19 47zM1100 2651.5q0 26.5 19 47.5l81 82q18 18 46 18t49 -18q18 -20 18 -48t-18 -47l-82 -81q-18 -18 -47 -19q-27 0 -47 19q-19 20 -19 46.5zM1258 2273q0 29 18.5 47 t46.5 18h115q27 0 46.5 -18.5t19.5 -46.5q0 -27 -19.5 -46.5t-46.5 -19.5h-115q-29 0 -47 19.5t-18 46.5zM0 716.5q0 147.5 56.5 278.5t153.5 228.5t228 154t278.5 56.5t278.5 -56.5t228.5 -154t154 -228.5t56.5 -278.5t-56.5 -278.5t-154 -228t-228.5 -153.5t-278.5 -56.5 t-278.5 56.5t-228 153.5t-153.5 228t-56.5 278.5zM160 716.5q0 -114.5 44 -216t119.5 -177t177 -119.5t216 -44t216 44t177.5 119.5t120 177t44 216t-44 216t-120 177.5t-177.5 120t-216 44t-216 -44t-177 -120t-119.5 -177.5t-44 -216zM317 717q0 82 32 154.5t86 127 t127 86t155 31.5t154.5 -31.5t127 -86t86 -127t31.5 -154.5t-31.5 -155t-86 -127t-127 -86t-154.5 -32t-155 32t-127 86t-86 127t-32 155zM477 717q0 -49 19.5 -93t51.5 -76t76 -51.5t93 -19.5t93 19.5t76 51.5t51 76t19 93t-19 93t-51 76t-76 51t-93 19t-93 -19t-76 -51 t-51.5 -76t-19.5 -93zM637 717q0 35 22.5 57.5t57.5 22.5t57.5 -22.5t22.5 -57.5t-22.5 -57.5t-57.5 -22.5t-57.5 22.5t-22.5 57.5z" />
<glyph unicode="&#xf4;" d="M307 2273l360 207v-148h297v297h-147l207 361l209 -361h-150v-297h297v148l361 -207l-361 -209v149h-297v-297h150l-209 -360l-207 360h147v297h-297v-149zM0 716.5q0 147.5 56.5 278.5t153.5 228.5t228 154t278.5 56.5t278.5 -56.5t228.5 -154t154 -228.5t56.5 -278.5 t-56.5 -278.5t-154 -228t-228.5 -153.5t-278.5 -56.5t-278.5 56.5t-228 153.5t-153.5 228t-56.5 278.5zM160 716.5q0 -114.5 44 -216t119.5 -177t177 -119.5t216 -44t216 44t177.5 119.5t120 177t44 216t-44 216t-120 177.5t-177.5 120t-216 44t-216 -44t-177 -120 t-119.5 -177.5t-44 -216zM317 717q0 82 32 154.5t86 127t127 86t155 31.5t154.5 -31.5t127 -86t86 -127t31.5 -154.5t-31.5 -155t-86 -127t-127 -86t-154.5 -32t-155 32t-127 86t-86 127t-32 155zM477 717q0 -49 19.5 -93t51.5 -76t76 -51.5t93 -19.5t93 19.5t76 51.5t51 76 t19 93t-19 93t-51 76t-76 51t-93 19t-93 -19t-76 -51t-51.5 -76t-19.5 -93zM637 717q0 35 22.5 57.5t57.5 22.5t57.5 -22.5t22.5 -57.5t-22.5 -57.5t-57.5 -22.5t-57.5 22.5t-22.5 57.5z" />
<glyph unicode="&#xf5;" d="M319 1557l222 385l221 385l223 -385l219 -385h-442h-443zM0 716.5q0 147.5 56.5 278.5t153.5 228.5t228 154t278.5 56.5t278.5 -56.5t228.5 -154t154 -228.5t56.5 -278.5t-56.5 -278.5t-154 -228t-228.5 -153.5t-278.5 -56.5t-278.5 56.5t-228 153.5t-153.5 228 t-56.5 278.5zM160 716.5q0 -114.5 44 -216t119.5 -177t177 -119.5t216 -44t216 44t177.5 119.5t120 177t44 216t-44 216t-120 177.5t-177.5 120t-216 44t-216 -44t-177 -120t-119.5 -177.5t-44 -216zM317 717q0 82 32 154.5t86 127t127 86t155 31.5t154.5 -31.5t127 -86 t86 -127t31.5 -154.5t-31.5 -155t-86 -127t-127 -86t-154.5 -32t-155 32t-127 86t-86 127t-32 155zM477 717q0 -49 19.5 -93t51.5 -76t76 -51.5t93 -19.5t93 19.5t76 51.5t51 76t19 93t-19 93t-51 76t-76 51t-93 19t-93 -19t-76 -51t-51.5 -76t-19.5 -93zM637 717 q0 35 22.5 57.5t57.5 22.5t57.5 -22.5t22.5 -57.5t-22.5 -57.5t-57.5 -22.5t-57.5 22.5t-22.5 57.5z" />
<glyph unicode="&#xf9;" d="M102 2273q0 29 19.5 47t46.5 18h114q29 0 47.5 -18.5t18.5 -46.5q0 -27 -18.5 -46.5t-47.5 -19.5h-114q-27 0 -46.5 19.5t-19.5 46.5zM292 1813q0 28 19 46l82 82q20 18 47 18t47 -18q18 -20 18 -47t-18 -47l-82 -82q-18 -18 -47 -19q-27 0 -47 19q-19 20 -19 48z M292 2732.5q0 27.5 19 48.5q20 18 48 18t46 -18l82 -82q18 -20 18 -47t-18 -47q-23 -18 -47 -19q-29 0 -47 19l-82 81q-19 19 -19 46.5zM415 2273q0 82 32 155.5t87 129t128 87t157 31.5t157.5 -31.5t128 -87t86 -129t31.5 -155.5q0 -84 -31.5 -158t-86 -128t-128 -86 t-157.5 -32t-157 32t-128 86t-87 128t-32 158zM530 2272.5q0 -59.5 22.5 -112.5t61.5 -92t92 -61.5t112.5 -22.5t113 22.5t92.5 61.5t61.5 92t22.5 112.5t-22.5 113t-61.5 92.5t-92.5 61.5t-113 22.5t-112.5 -22.5t-92 -61.5t-61.5 -92.5t-22.5 -113zM753 1622v114 q0 29 19.5 47.5t46.5 18.5q29 0 47 -18.5t18 -47.5v-114q0 -27 -18.5 -46.5t-46.5 -19.5q-27 0 -46.5 19.5t-19.5 46.5zM753 2809v115q0 27 19.5 46.5t46.5 19.5q29 0 47 -19.5t18 -46.5v-115q0 -29 -18.5 -47t-46.5 -18q-27 0 -46.5 18t-19.5 47zM1132 1894q0 27 19 47 q20 18 46.5 18t47.5 -18l82 -82q18 -18 18 -46t-18 -48q-23 -18 -47 -19q-29 0 -48 19l-81 82q-19 20 -19 47zM1132 2651.5q0 26.5 19 47.5l81 82q18 18 46 18t49 -18q18 -20 18 -48t-18 -47l-82 -81q-18 -18 -47 -19q-27 0 -47 19q-19 20 -19 46.5zM1290 2273q0 29 18.5 47 t46.5 18h115q27 0 46.5 -18.5t19.5 -46.5q0 -27 -19.5 -46.5t-46.5 -19.5h-115q-29 0 -47 19.5t-18 46.5zM0 92q0 74 37 139.5t101.5 121t154.5 95t196 60.5q51 -37 107.5 -57.5t120 -20.5t120 20.5t107.5 57.5q106 -20 195.5 -60t155 -95.5t102.5 -121t37 -139.5h-1434z M422 938q0 84 22.5 157.5t62.5 129t94 87t115.5 31.5t115 -31.5t93.5 -87t63.5 -129t23.5 -157.5t-23.5 -158.5t-63.5 -130t-93.5 -87.5t-115 -32t-115.5 32t-94 87.5t-62.5 130t-22.5 158.5z" />
<glyph unicode="&#xfb;" d="M342 2273l360 207v-148h297v297h-147l207 361l209 -361h-150v-297h297v148l361 -207l-361 -209v149h-297v-297h150l-209 -360l-207 360h147v297h-297v-149zM0 92q0 74 37 139.5t101.5 121t154.5 95t196 60.5q51 -37 107.5 -57.5t120 -20.5t120 20.5t107.5 57.5 q106 -20 195.5 -60t155 -95.5t102.5 -121t37 -139.5h-1434zM422 938q0 84 22.5 157.5t62.5 129t94 87t115.5 31.5t115 -31.5t93.5 -87t63.5 -129t23.5 -157.5t-23.5 -158.5t-63.5 -130t-93.5 -87.5t-115 -32t-115.5 32t-94 87.5t-62.5 130t-22.5 158.5z" />
<glyph unicode="&#x152;" horiz-adv-x="2867" d="M1551 0v59q0 100 19.5 195.5t56 180.5t89 157t117.5 125q-66 51 -118 122.5t-88.5 156.5t-56 180.5t-19.5 197.5v60h1200v-60q0 -102 -19.5 -197.5t-56.5 -180.5t-89 -156.5t-118 -122.5q131 -106 207 -280.5t76 -377.5v-59h-1200zM1672 117h958q-6 90 -28.5 174 t-60.5 154.5t-90 127t-114 93.5l-88 51l88 51q125 72 204 218.5t89 330.5h-958q12 -184 91 -330.5t203 -218.5l86 -51l-86 -51q-61 -37 -113 -93.5t-90 -127t-61.5 -154.5t-29.5 -174zM1825 219q31 72 68 137q33 55 78 110.5t102 84.5v2h2q2 0 2 2q20 12 34.5 54t16.5 92 q0 8 1 17q0 41 -9 80q-10 46 -39 64q-41 23 -74.5 66t-56.5 84q-27 49 -49 102h502q-23 -53 -49 -102q-25 -41 -59 -84t-75 -66q-29 -18 -38 -64q-8 -35 -8 -74v-23q3 -50 16.5 -92t34.5 -54q0 -2 2 -2h4v-2q55 -29 100 -84t78 -111q37 -66 67 -137h-651zM0 279l600 602 q-15 55 -15 111q0 52 13 105q27 110 111 193q61 61 139 92t158.5 31t159.5 -31.5t141 -93.5q63 -63 95 -142t32 -160t-30 -159.5t-91 -140.5q-86 -84 -195 -108q-50 -11 -100 -12l-117 16l-119 -123h-192v-146h-141v-145h-146v-148h-252q-27 2 -38 13.5t-11 40.5zM1026 1123 q0 -46 33 -81q35 -35 81 -34.5t81 32.5q33 35 32.5 81t-34.5 79q-35 35 -81 35t-79 -33t-33 -79z" />
<glyph unicode="&#x153;" horiz-adv-x="2867" d="M1434 877l539 12l178 510l178 -510l539 -12l-430 -324l155 -518l-442 307l-443 -307l156 518zM2151 449l289 -201l-103 336l281 213l-350 8l-117 332v-688zM0 716.5q0 147.5 56.5 278.5t153.5 228.5t228 154t278.5 56.5t278.5 -56.5t228.5 -154t154 -228.5t56.5 -278.5 t-56.5 -278.5t-154 -228t-228.5 -153.5t-278.5 -56.5t-278.5 56.5t-228 153.5t-153.5 228t-56.5 278.5zM160 716.5q0 -114.5 44 -216t119.5 -177t177 -119.5t216 -44t216 44t177.5 119.5t120 177t44 216t-44 216t-120 177.5t-177.5 120t-216 44t-216 -44t-177 -120 t-119.5 -177.5t-44 -216zM317 717q0 82 32 154.5t86 127t127 86t155 31.5t154.5 -31.5t127 -86t86 -127t31.5 -154.5t-31.5 -155t-86 -127t-127 -86t-154.5 -32t-155 32t-127 86t-86 127t-32 155zM477 717q0 -49 19.5 -93t51.5 -76t76 -51.5t93 -19.5t93 19.5t76 51.5t51 76 t19 93t-19 93t-51 76t-76 51t-93 19t-93 -19t-76 -51t-51.5 -76t-19.5 -93zM637 717q0 35 22.5 57.5t57.5 22.5t57.5 -22.5t22.5 -57.5t-22.5 -57.5t-57.5 -22.5t-57.5 22.5t-22.5 57.5z" />
<glyph unicode="&#x2c6;" d="M0 717l360 207v-148h297v297h-147l207 361l209 -361h-150v-297h297v148l361 -207l-361 -209v149h-297v-297h150l-209 -360l-207 360h147v297h-297v-149z" />
<glyph unicode="&#x2dc;" d="M-398 123l222 385l221 385l223 -385l219 -385h-442h-443z" />
<glyph unicode="&#x2000;" horiz-adv-x="1495" />
<glyph unicode="&#x2001;" horiz-adv-x="2990" />
<glyph unicode="&#x2002;" horiz-adv-x="1495" />
<glyph unicode="&#x2003;" horiz-adv-x="2990" />
<glyph unicode="&#x2004;" horiz-adv-x="995" />
<glyph unicode="&#x2005;" horiz-adv-x="747" />
<glyph unicode="&#x2006;" horiz-adv-x="497" />
<glyph unicode="&#x2007;" horiz-adv-x="497" />
<glyph unicode="&#x2008;" horiz-adv-x="372" />
<glyph unicode="&#x2009;" horiz-adv-x="598" />
<glyph unicode="&#x200a;" horiz-adv-x="165" />
<glyph unicode="&#x2010;" d="M0 633v168q0 23 16.5 40t38.5 17h1323q23 0 39.5 -17.5t16.5 -39.5v-168q0 -23 -16.5 -40.5t-39.5 -17.5h-1323q-23 0 -39 17.5t-16 40.5z" />
<glyph unicode="&#x2011;" d="M0 633v168q0 23 16.5 40t38.5 17h1323q23 0 39.5 -17.5t16.5 -39.5v-168q0 -23 -16.5 -40.5t-39.5 -17.5h-1323q-23 0 -39 17.5t-16 40.5z" />
<glyph unicode="&#x2012;" d="M0 633v168q0 23 16.5 40t38.5 17h1323q23 0 39.5 -17.5t16.5 -39.5v-168q0 -23 -16.5 -40.5t-39.5 -17.5h-1323q-23 0 -39 17.5t-16 40.5z" />
<glyph unicode="&#x2013;" horiz-adv-x="1024" d="M0 575v283h1024v-283h-1024z" />
<glyph unicode="&#x2014;" horiz-adv-x="2048" d="M0 575v283h2048v-283h-2048z" />
<glyph unicode="&#x2018;" d="M0 717q0 29 19.5 47t46.5 18h114q29 0 47.5 -18.5t18.5 -46.5q0 -27 -18.5 -46.5t-47.5 -19.5h-114q-27 0 -46.5 19.5t-19.5 46.5zM190 257q0 28 19 46l82 82q20 18 47 18t47 -18q18 -20 18 -47t-18 -47l-82 -82q-18 -18 -47 -19q-27 0 -47 19q-19 20 -19 48zM190 1176.5 q0 27.5 19 48.5q20 18 48 18t46 -18l82 -82q18 -20 18 -47t-18 -47q-23 -18 -47 -19q-29 0 -47 19l-82 81q-19 19 -19 46.5zM313 717q0 82 32 155.5t87 129t128 87t157 31.5t157.5 -31.5t128 -87t86 -129t31.5 -155.5q0 -84 -31.5 -158t-86 -128t-128 -86t-157.5 -32 t-157 32t-128 86t-87 128t-32 158zM428 716.5q0 -59.5 22.5 -112.5t61.5 -92t92 -61.5t112.5 -22.5t113 22.5t92.5 61.5t61.5 92t22.5 112.5t-22.5 113t-61.5 92.5t-92.5 61.5t-113 22.5t-112.5 -22.5t-92 -61.5t-61.5 -92.5t-22.5 -113zM651 66v114q0 29 19.5 47.5 t46.5 18.5q29 0 47 -18.5t18 -47.5v-114q0 -27 -18.5 -46.5t-46.5 -19.5q-27 0 -46.5 19.5t-19.5 46.5zM651 1253v115q0 27 19.5 46.5t46.5 19.5q29 0 47 -19.5t18 -46.5v-115q0 -29 -18.5 -47t-46.5 -18q-27 0 -46.5 18t-19.5 47zM1030 338q0 27 19 47q20 18 46.5 18 t47.5 -18l82 -82q18 -18 18 -46t-18 -48q-23 -18 -47 -19q-29 0 -48 19l-81 82q-19 20 -19 47zM1030 1095.5q0 26.5 19 47.5l81 82q18 18 46 18t49 -18q18 -20 18 -48t-18 -47l-82 -81q-18 -18 -47 -19q-27 0 -47 19q-19 20 -19 46.5zM1188 717q0 29 18.5 47t46.5 18h115 q27 0 46.5 -18.5t19.5 -46.5q0 -27 -19.5 -46.5t-46.5 -19.5h-115q-29 0 -47 19.5t-18 46.5z" />
<glyph unicode="&#x2019;" d="M0 870q0 113 56.5 211.5t153.5 172t228 115.5t278.5 42t278.5 -42t228.5 -115.5t154 -172t56.5 -211t-56.5 -211t-154 -172t-228.5 -115.5t-278 -42h-12q-33 -49 -74 -97.5t-84 -90.5t-86 -73.5t-80 -45.5q47 59 72.5 125.5t25.5 138.5q0 16 -2 37.5t-6 37.5 q-102 29 -189 79.5t-149.5 116t-97.5 145t-35 167.5z" />
<glyph unicode="&#x201c;" d="M0 817q0 86 46 161t126 130t187.5 88t230.5 33t229.5 -33t186 -88t126 -130t46.5 -161t-46.5 -160.5t-126 -130t-186 -87t-229.5 -31.5q-23 0 -43.5 1t-40.5 3q-53 -68 -122 -125.5t-124 -79.5q82 94 82 201q0 8 -1 18t-3 20q-74 25 -136.5 63t-107.5 86t-69.5 104.5 t-24.5 117.5zM842 387q86 27 156.5 70t123 97t83 118.5t32.5 136.5q90 -31 143.5 -91.5t53.5 -133.5q0 -76 -57.5 -137.5t-149.5 -92.5q-4 -16 -4 -22q0 -63 51 -125q-35 14 -77 49t-75 76q-12 0 -25.5 -1t-27.5 -1q-129 0 -227 57z" />
<glyph unicode="&#x201d;" d="M0 817q0 86 46 161t126 130t187.5 88t230.5 33t229.5 -33t186 -88t126 -130t46.5 -161t-46.5 -160.5t-126 -130t-186 -87t-229.5 -31.5q-23 0 -43.5 1t-40.5 3q-53 -68 -122 -125.5t-124 -79.5q82 94 82 201q0 8 -1 18t-3 20q-74 25 -136.5 63t-107.5 86t-69.5 104.5 t-24.5 117.5zM842 387q86 27 156.5 70t123 97t83 118.5t32.5 136.5q90 -31 143.5 -91.5t53.5 -133.5q0 -76 -57.5 -137.5t-149.5 -92.5q-4 -16 -4 -22q0 -63 51 -125q-35 14 -77 49t-75 76q-12 0 -25.5 -1t-27.5 -1q-129 0 -227 57z" />
<glyph unicode="&#x2026;" horiz-adv-x="4300" d="M2955 0v1434h897l358 -359v-1075h-1255zM3047 88h1075v987h-270v268h-805v-1255zM1522 0v1434h897l358 -359v-1075h-1255zM1614 88h1075v987h-270v268h-805v-1255zM88 0v1434h897l358 -359v-1075h-1255zM180 88h1075v987h-270v268h-805v-1255z" />
<glyph unicode="&#x202f;" horiz-adv-x="598" />
<glyph unicode="&#x2039;" d="M176 894q-12 93 9.5 181t75.5 164t138 127q84 49 177.5 61.5t181.5 -9t164.5 -76t126.5 -138.5q47 -78 61 -163t-1 -166.5t-59 -155.5t-112 -129l322 -471q6 -10 3 -23.5t-14 -19.5l-121 -72q-10 -8 -23 -4t-18 16l-268 506q-80 -31 -163 -33t-160.5 24t-144 77 t-111.5 127q-52 84 -64 177zM325.5 916.5q8.5 -62.5 43 -120t86 -95t112 -52t123 -6.5t119.5 43q57 33 94 85t52.5 111.5t7 123t-43 121t-86 94t-111.5 51t-122.5 6.5t-120 -43t-94.5 -86t-52.5 -110.5t-7 -122zM426 918v90h168v190h90v-190h190v-90h-190v-191h-90v191h-168 z" />
<glyph unicode="&#x203a;" d="M174 894q-12 93 10.5 181t76.5 164t138 127q84 49 177.5 61.5t181.5 -9t163.5 -76t127.5 -138.5q45 -78 59 -163t-1 -166.5t-58 -155.5t-113 -129l321 -471q8 -10 5.5 -23.5t-15.5 -19.5l-119 -72q-12 -8 -24 -4t-19 16l-266 506q-80 -31 -164 -33t-161.5 24t-144 77 t-111.5 127q-52 84 -64 177zM323.5 916.5q8.5 -62.5 43 -120t87 -95t112 -52t123 -6.5t120.5 43q57 33 94 85t51.5 111.5t6 123t-43 121t-86 94t-112 51t-122.5 6.5t-119.5 -43t-94.5 -86t-52.5 -110.5t-7 -122zM410 920v84h467v-84h-467z" />
<glyph unicode="&#x205f;" horiz-adv-x="747" />
<glyph unicode="&#x2122;" horiz-adv-x="2867" d="M1454 836q0 31 46.5 59.5t125 50t185 33.5t227.5 12t226.5 -12t184.5 -33.5t125 -50.5t46 -59v-21q98 -20 162.5 -86.5t64.5 -153.5q0 -51 -23.5 -96t-63.5 -78.5t-93 -53t-115 -19.5q-8 0 -14 1t-14 1q-70 -152 -191 -241t-295 -89q-150 0 -259 65.5t-182 179 t-108 266.5t-35 325zM1510 836q10 -10 43 -27.5t108 -36.5q78 -18 175.5 -27.5t202 -9.5t199.5 9.5t173 27.5q76 18 109.5 35.5t43.5 28.5q-10 10 -43.5 27.5t-109.5 35.5q-78 16 -173 26.5t-199.5 10.5t-202 -10.5t-175.5 -26.5q-76 -18 -108.5 -35.5t-42.5 -27.5z M1947 1222q5 24 25.5 44t59.5 32q-29 -29 -33 -55t5.5 -51t26.5 -48.5t32.5 -47t24 -47t-0.5 -48.5q-8 31 -21.5 50.5t-29.5 33t-31.5 24.5t-27.5 24q-18 18 -27 42q-5 14 -5 29q0 9 2 18zM2035 1339q0 22 11 41q12 20 41 35t76 19q-39 -27 -49 -55.5t-5 -57.5t19.5 -58.5 t25.5 -60.5t13 -61.5t-18 -59.5q0 41 -11.5 71t-28 53.5t-33.5 43t-28 39.5q-13 25 -13 51zM2550 391q104 8 152.5 60.5t48.5 113.5q0 47 -36 88t-99 58q-6 -88 -23.5 -168t-42.5 -152zM59 1094l43 180h392v72q0 35 25.5 61.5t62.5 26.5h270q37 0 62.5 -27t25.5 -61v-72h391 l43 -180h-106l-123 -1094h-856l-123 1094h-107zM338 932l76 -717h106l-76 717h-106zM563 1274h307v72q0 16 -18 16h-270q-18 0 -19 -16v-72zM657 215h119v717h-119v-717zM913 215h107l76 717h-107z" />
<glyph unicode="&#xe000;" horiz-adv-x="1435" d="M0 1435h1435v-1435h-1435v1435z" />
<glyph unicode="&#xfb01;" horiz-adv-x="2867" d="M1434 716.5q0 147.5 56.5 278.5t153.5 228.5t228 154t278.5 56.5t278.5 -56.5t228.5 -154t154 -228.5t56.5 -278.5t-56.5 -278.5t-154 -227t-228.5 -152.5t-278.5 -56.5t-278.5 56.5t-228 152.5t-153.5 227t-56.5 278.5zM1911 786q10 0 23.5 -2t26 -6t22.5 -7t16 -7 q10 -4 16.5 -11.5t12.5 -15.5q12 -18 12 -41v-329q0 -29 -10 -39q-10 -16 -31 -23q-8 -2 -15 -4t-17.5 -2t-18.5 -1t-18 -3v-88h460v88q-10 2 -19 3t-17 5q-10 2 -17.5 4t-15.5 6q-20 6 -31 23q-12 14 -12 39v467l-367 -8v-48zM1995 1094q0 -55 43 -95q41 -39 103 -38 q59 0 100 38.5t41 94t-41 94.5t-100 39q-61 0 -103 -39q-43 -41 -43 -94zM0 877l541 12l176 510l178 -510l539 -12l-430 -326l155 -516l-442 307l-443 -307l156 516z" />
<glyph unicode="&#xfb02;" horiz-adv-x="2867" d="M1522 88v629q0 37 27.5 62.5t64.5 25.5h88v270q0 74 35 139.5t96.5 114.5t143.5 77t174 28t174 -28t142.5 -77t95 -114.5t34.5 -139.5v-270h92q35 0 61.5 -25.5t26.5 -62.5v-629q0 -35 -26.5 -61.5t-61.5 -26.5h-1075q-37 0 -64.5 26.5t-27.5 61.5zM1880 805h539v270 q0 41 -22.5 70t-40.5 43q-39 33 -88 47q-53 20 -117 20t-117 -20q-49 -14 -88 -47q-18 -14 -42 -43t-24 -70v-270zM0 877l541 12l176 510l178 -510l539 -12l-430 -326l155 -516l-442 307l-443 -307l156 516z" />
<glyph unicode="&#xfb03;" horiz-adv-x="4300" d="M2867 716.5q0 147.5 56.5 278.5t153.5 228.5t228 154t278.5 56.5t278.5 -56.5t228.5 -154t154 -228.5t56.5 -278.5t-56.5 -278.5t-154 -227t-228.5 -152.5t-278.5 -56.5t-278.5 56.5t-228 152.5t-153.5 227t-56.5 278.5zM3344 786q10 0 23.5 -2t26 -6t22.5 -7t16 -7 q10 -4 16.5 -11.5t12.5 -15.5q12 -18 12 -41v-329q0 -29 -10 -39q-10 -16 -31 -23q-8 -2 -15 -4t-17.5 -2t-18.5 -1t-18 -3v-88h460v88q-10 2 -19 3t-17 5q-10 2 -17.5 4t-15.5 6q-20 6 -31 23q-12 14 -12 39v467l-367 -8v-48zM3428 1094q0 -55 43 -95q41 -39 103 -38 q59 0 100 38.5t41 94t-41 94.5t-100 39q-61 0 -103 -39q-43 -41 -43 -94zM1434 877l541 12l176 510l178 -510l539 -12l-430 -326l155 -516l-442 307l-443 -307l156 516zM0 877l541 12l176 510l178 -510l539 -12l-430 -326l155 -516l-442 307l-443 -307l156 516z" />
<glyph unicode="&#xfb04;" horiz-adv-x="4300" d="M2955 88v629q0 37 27.5 62.5t64.5 25.5h88v270q0 74 35 139.5t96.5 114.5t143.5 77t174 28t174 -28t142.5 -77t95 -114.5t34.5 -139.5v-270h92q35 0 61.5 -25.5t26.5 -62.5v-629q0 -35 -26.5 -61.5t-61.5 -26.5h-1075q-37 0 -64.5 26.5t-27.5 61.5zM3313 805h539v270 q0 41 -22.5 70t-40.5 43q-39 33 -88 47q-53 20 -117 20t-117 -20q-49 -14 -88 -47q-18 -14 -42 -43t-24 -70v-270zM1434 877l541 12l176 510l178 -510l539 -12l-430 -326l155 -516l-442 307l-443 -307l156 516zM0 877l541 12l176 510l178 -510l539 -12l-430 -326l155 -516 l-442 307l-443 -307l156 516z" />
</font>
</defs>
</svg>
